<?xml version="1.0" standalone="no"?>
<!DOCTYPE svg PUBLIC "-//W3C//DTD SVG 1.1//EN" "http://www.w3.org/Graphics/SVG/1.1/DTD/svg11.dtd" >
<svg xmlns="http://www.w3.org/2000/svg" xmlns:xlink="http://www.w3.org/1999/xlink" version="1.1">
<metadata>
Created by FontForge 20170731 at Tue Oct 31 17:58:48 2017
 By Aleksey,,,
Copyright 2011 The Montserrat Project Authors (https://github.com/JulietaUla/Montserrat)
</metadata>
<defs>
<font id="Montserrat-BoldItalic" horiz-adv-x="0" >
  <font-face 
    font-family="Montserrat"
    font-weight="700"
    font-style="italic"
    font-stretch="normal"
    units-per-em="1000"
    panose-1="0 0 8 0 0 0 0 0 0 0"
    ascent="800"
    descent="-200"
    x-height="538"
    cap-height="700"
    bbox="-859 -266 1693 1076"
    underline-thickness="50"
    underline-position="-150"
    slope="-11.3"
    unicode-range="U+000D-FB02"
  />
<missing-glyph horiz-adv-x="587" 
d="M126 700h507l-140 -700h-507zM427 70l112 560h-347l-112 -560h347z" />
    <glyph glyph-name="fi" unicode="fi" horiz-adv-x="767" 
d="M327.5 607.5q-20.5 -19.5 -28.5 -61.5l-4 -20h137l-24 -120h-133l-81 -406h-156l81 406h-84l24 120h84l6 31q19 90 78.5 141.5t155.5 51.5q36 0 68.5 -8t55.5 -22l-61 -112q-25 19 -62 19q-36 0 -56.5 -19.5zM593 538h155l-107 -538h-155zM631.5 636.5
q-25.5 23.5 -25.5 57.5q0 40 28.5 66.5t74.5 26.5q41 0 66.5 -22.5t25.5 -55.5q0 -43 -29 -69.5t-75 -26.5q-40 0 -65.5 23.5z" />
    <glyph glyph-name="fl" unicode="fl" horiz-adv-x="688" 
d="M327.5 607.5q-20.5 -19.5 -28.5 -61.5l-4 -20h137l-24 -120h-133l-81 -406h-156l81 406h-84l24 120h84l6 31q19 90 78.5 141.5t155.5 51.5q36 0 68.5 -8t55.5 -22l-61 -112q-25 19 -62 19q-36 0 -56.5 -19.5zM554 742h156l-148 -742h-156z" />
    <glyph glyph-name=".notdef" horiz-adv-x="587" 
d="M126 700h507l-140 -700h-507zM427 70l112 560h-347l-112 -560h347z" />
    <glyph glyph-name=".null" 
 />
    <glyph glyph-name="nonmarkingreturn" unicode="&#xd;" horiz-adv-x="283" 
 />
    <glyph glyph-name="NULL" 
 />
    <glyph glyph-name="NULL" 
 />
    <glyph glyph-name="space" unicode=" " horiz-adv-x="283" 
 />
    <glyph glyph-name="exclam" unicode="!" horiz-adv-x="289" 
d="M138 700h186l-123 -457h-124zM37 16.5q-26 24.5 -26 59.5q0 42 29 69t72 27q39 0 65 -23.5t26 -58.5q0 -41 -29 -69.5t-71 -28.5q-40 0 -66 24.5z" />
    <glyph glyph-name="quotedbl" unicode="&#x22;" horiz-adv-x="437" 
d="M135 700h133l-67 -284h-111zM341 700h133l-67 -284h-111z" />
    <glyph glyph-name="numbersign" unicode="#" horiz-adv-x="720" 
d="M589 431l-51 -162h129l-22 -109h-142l-51 -160h-116l51 160h-144l-51 -160h-115l51 160h-129l21 109h143l52 162h-129l22 109h142l51 160h115l-51 -160h144l51 160h115l-51 -160h130l-21 -109h-144zM474 431h-144l-52 -162h144z" />
    <glyph glyph-name="dollar" unicode="$" horiz-adv-x="638" 
d="M503 368q40 -19 66.5 -53.5t26.5 -88.5q0 -99 -74 -162t-200 -74l-22 -110h-100l22 110q-70 7 -130.5 27.5t-99.5 49.5l67 124q40 -29 88.5 -47.5t100.5 -23.5l34 169q-59 18 -99.5 37.5t-68 56t-27.5 92.5q0 66 34 117t97.5 81.5t147.5 36.5l22 110h100l-22 -111
q110 -11 184 -57l-61 -124q-63 42 -149 52l-35 -176q58 -17 98 -36zM264.5 459q15.5 -15 45.5 -27l29 144q-42 -8 -65.5 -29.5t-24.5 -50.5q0 -22 15.5 -37zM412 151.5q22 20.5 22 48.5q0 38 -58 60l-27 -137q41 8 63 28.5z" />
    <glyph glyph-name="percent" unicode="%" horiz-adv-x="878" 
d="M115.5 364q-41.5 42 -41.5 116q0 63 24 115t69.5 82.5t106.5 30.5q69 0 110.5 -42t41.5 -116q0 -64 -24 -115.5t-69.5 -82t-106.5 -30.5q-69 0 -110.5 42zM697 700h126l-610 -700h-127zM302 447q23 43 23 97q0 41 -16 61.5t-44 20.5q-44 0 -67 -43t-23 -97
q0 -41 16 -61.5t44 -20.5q44 0 67 43zM525 34q-41 42 -41 116q0 63 24 115t69.5 82t105.5 30q70 0 111.5 -42t41.5 -116q0 -64 -24 -115.5t-69.5 -81.5t-106.5 -30q-70 0 -111 42zM711.5 116.5q23.5 43.5 23.5 97.5q0 41 -16.5 61.5t-43.5 20.5q-44 0 -67.5 -43.5
t-23.5 -97.5q0 -41 16.5 -61.5t44.5 -20.5q43 0 66.5 43.5z" />
    <glyph glyph-name="ampersand" unicode="&#x26;" horiz-adv-x="728" 
d="M606 158l63 -72l-104 -98l-64 72q-106 -72 -234 -72q-73 0 -129.5 21.5t-88 61t-31.5 93.5q0 72 49.5 126.5t145.5 100.5q-44 59 -44 120q0 60 31.5 105t85 69t118.5 24q84 0 136.5 -38t52.5 -105q0 -64 -43.5 -110.5t-130.5 -87.5l104 -117q35 49 58 110l119 -39
q-37 -93 -94 -164zM335.5 582q-23.5 -21 -23.5 -56q0 -17 8.5 -35t28.5 -43q64 29 88 52.5t24 52.5q0 22 -17 36t-46 14q-39 0 -62.5 -21zM422 151l-139 158q-56 -27 -82.5 -54.5t-26.5 -63.5t29.5 -58.5t83.5 -22.5q70 0 135 41z" />
    <glyph glyph-name="quotesingle" unicode="'" horiz-adv-x="230" 
d="M135 700h133l-67 -284h-111z" />
    <glyph glyph-name="parenleft" unicode="(" horiz-adv-x="357" 
d="M72 -63q-15 79 -15 158q0 180 60 351t168 296h156q-115 -149 -174 -315t-59 -340q0 -140 46 -281h-143q-24 52 -39 131z" />
    <glyph glyph-name="parenright" unicode=")" horiz-adv-x="357" 
d="M115 121q59 166 59 340q0 140 -46 281h143q24 -52 39 -131t15 -158q0 -180 -60 -351t-168 -296h-156q115 149 174 315z" />
    <glyph glyph-name="asterisk" unicode="*" horiz-adv-x="434" 
d="M368 543l93 -57l-57 -83l-102 69l-22 -125h-95l26 120l-118 -63l-39 79l126 62l-96 58l58 84l100 -69l22 124h94l-26 -123l121 66l37 -82z" />
    <glyph glyph-name="plus" unicode="+" horiz-adv-x="600" 
d="M542 289h-173l-34 -170h-130l34 170h-173l24 122h173l34 170h130l-34 -170h173z" />
    <glyph glyph-name="comma" unicode="," horiz-adv-x="262" 
d="M167.5 161q25.5 -25 25.5 -65q0 -21 -7.5 -39.5t-27.5 -49.5l-100 -161h-98l77 161q-18 12 -28.5 31.5t-10.5 43.5q0 46 30 75t74 29q40 0 65.5 -25z" />
    <glyph glyph-name="hyphen" unicode="-" horiz-adv-x="386" 
d="M67 344h283l-25 -125h-283z" />
    <glyph glyph-name="period" unicode="." horiz-adv-x="262" 
d="M24 17.5q-26 25.5 -26 64.5q0 46 30 75t74 29q40 0 65.5 -25t25.5 -65q0 -45 -30.5 -74.5t-72.5 -29.5q-40 0 -66 25.5z" />
    <glyph glyph-name="slash" unicode="/" horiz-adv-x="392" 
d="M405 842h146l-514 -942h-145z" />
    <glyph glyph-name="zero" unicode="0" horiz-adv-x="678" 
d="M114 58.5q-68 70.5 -68 194.5q0 126 46.5 231t129.5 166.5t189 61.5q117 0 185 -70.5t68 -194.5q0 -126 -46.5 -231t-129.5 -166.5t-189 -61.5q-117 0 -185 70.5zM414.5 175q42.5 50 64.5 124.5t22 143.5q0 67 -27.5 99.5t-77.5 32.5q-58 0 -100.5 -50t-64.5 -124.5
t-22 -143.5q0 -67 27.5 -99.5t77.5 -32.5q58 0 100.5 50z" />
    <glyph glyph-name="one" unicode="1" horiz-adv-x="392" 
d="M395 700l-140 -700h-162l114 570h-140l26 130h302z" />
    <glyph glyph-name="two" unicode="2" horiz-adv-x="590" 
d="M241 132h294l-26 -132h-530l21 105l319 250q58 47 80.5 79t22.5 67t-26.5 56t-76.5 21q-42 0 -81 -19t-68 -54l-109 79q43 59 118 93.5t164 34.5q73 0 128.5 -24t86 -67t30.5 -97q0 -65 -36 -122t-125 -126z" />
    <glyph glyph-name="three" unicode="3" horiz-adv-x="592" 
d="M590 595l-196 -183q73 -17 113 -63t40 -114q0 -71 -41.5 -127t-115.5 -88t-168 -32q-77 0 -144 21t-112 60l78 119q35 -30 84.5 -47t104.5 -17q72 0 111 26.5t39 74.5q0 38 -28.5 56.5t-86.5 18.5h-74l21 107l174 163h-296l27 130h490z" />
    <glyph glyph-name="four" unicode="4" horiz-adv-x="689" 
d="M656 147h-115l-29 -147h-158l30 147h-377l21 109l412 444h177l-384 -421h184l26 131h151l-26 -131h115z" />
    <glyph glyph-name="five" unicode="5" horiz-adv-x="595" 
d="M294 570l-38 -133h42q129 0 195.5 -50t66.5 -142q0 -77 -41 -135.5t-114.5 -90t-168.5 -31.5q-78 0 -144.5 21t-112.5 60l78 119q35 -30 84.5 -47t104.5 -17q72 0 111 26.5t39 75.5q0 80 -136 80h-190l114 394h428l-27 -130h-291z" />
    <glyph glyph-name="six" unicode="6" horiz-adv-x="637" 
d="M496.5 415q51.5 -24 82 -69.5t30.5 -108.5q0 -75 -36 -131.5t-100 -87t-144 -30.5q-84 0 -148 33t-99.5 97.5t-35.5 156.5q0 106 45 206.5t140 165.5t236 65q58 0 110 -12.5t85 -34.5l-73 -119q-50 34 -132 34q-97 0 -155.5 -55t-77.5 -141q62 55 161 55q60 0 111.5 -24z
M414.5 140q34.5 31 34.5 83q0 44 -30.5 69.5t-80.5 25.5q-56 0 -91 -31t-35 -79q0 -42 30.5 -70.5t84.5 -28.5q53 0 87.5 31z" />
    <glyph glyph-name="seven" unicode="7" horiz-adv-x="620" 
d="M673 700l-21 -105l-374 -595h-180l359 568h-227l-23 -114h-144l49 246h561z" />
    <glyph glyph-name="eight" unicode="8" horiz-adv-x="660" 
d="M611 218q0 -70 -38.5 -122t-107.5 -80t-159 -28q-86 0 -150 24t-99 69t-35 104q0 69 37 119t106 77q-57 45 -57 117q0 65 35.5 113.5t99 74.5t144.5 26q77 0 136 -22.5t92 -63.5t33 -96q0 -60 -29.5 -104t-84.5 -70q77 -51 77 -138zM300.5 567.5q-31.5 -25.5 -31.5 -70.5
q0 -36 27.5 -57t75.5 -21q52 0 83.5 25.5t31.5 68.5q0 37 -28 58.5t-75 21.5q-52 0 -83.5 -25.5zM409.5 136.5q37.5 29.5 37.5 80.5q0 42 -33 66.5t-91 24.5q-63 0 -100.5 -29t-37.5 -79q0 -43 34 -68t90 -25q63 0 100.5 29.5z" />
    <glyph glyph-name="nine" unicode="9" horiz-adv-x="637" 
d="M489.5 679q63.5 -33 99 -97.5t35.5 -156.5q0 -106 -45 -206.5t-140 -165.5t-235 -65q-58 0 -110.5 12.5t-85.5 34.5l74 119q50 -34 131 -34q98 0 156.5 55t77.5 142q-60 -56 -157 -56q-63 0 -115 24t-83 69.5t-31 108.5q0 75 36.5 131.5t100.5 87t144 30.5
q84 0 147.5 -33zM424 413q35 31 35 79q0 42 -31 70.5t-84 28.5q-54 0 -88 -31t-34 -83q0 -44 30 -69.5t80 -25.5q57 0 92 31z" />
    <glyph glyph-name="colon" unicode=":" horiz-adv-x="262" 
d="M96 376.5q-26 25.5 -26 64.5q0 46 30 75t74 29q40 0 65.5 -25t25.5 -65q0 -45 -30.5 -74.5t-72.5 -29.5q-40 0 -66 25.5zM24 17.5q-26 25.5 -26 64.5q0 46 30 75t74 29q40 0 65.5 -25t25.5 -65q0 -45 -30.5 -74.5t-72.5 -29.5q-40 0 -66 25.5z" />
    <glyph glyph-name="semicolon" unicode=";" horiz-adv-x="262" 
d="M96 376.5q-26 25.5 -26 64.5q0 46 30 75t74 29q40 0 65.5 -25t25.5 -65q0 -45 -30.5 -74.5t-72.5 -29.5q-40 0 -66 25.5zM167.5 161q25.5 -25 25.5 -65q0 -21 -7.5 -39.5t-27.5 -49.5l-100 -161h-98l77 161q-18 12 -28.5 31.5t-10.5 43.5q0 46 30 75t74 29q40 0 65.5 -25
z" />
    <glyph glyph-name="less" unicode="&#x3c;" horiz-adv-x="599" 
d="M577 465l-358 -122l310 -121l-24 -118l-440 181l26 130l512 181z" />
    <glyph glyph-name="equal" unicode="=" horiz-adv-x="599" 
d="M115 534h476l-25 -121h-476zM65 287h476l-24 -122h-476z" />
    <glyph glyph-name="greater" unicode="&#x3e;" horiz-adv-x="599" 
d="M567 415l-26 -130l-512 -181l27 131l355 122l-307 121l24 118z" />
    <glyph glyph-name="question" unicode="?" horiz-adv-x="589" 
d="M252 328.5q30 33.5 82 71.5q44 33 65 56.5t21 56.5q0 31 -25.5 49.5t-71.5 18.5q-48 0 -88 -19.5t-69 -56.5l-105 77q45 61 121.5 95.5t172.5 34.5q106 0 169 -45.5t63 -122.5q0 -47 -17.5 -81t-43 -57t-65.5 -52q-44 -32 -67.5 -55.5t-30.5 -55.5h-151q10 52 40 85.5z
M185 16.5q-26 24.5 -26 59.5q0 42 29 69t72 27q39 0 65 -23.5t26 -58.5q0 -41 -29 -69.5t-71 -28.5q-40 0 -66 24.5z" />
    <glyph glyph-name="at" unicode="@" horiz-adv-x="1035" 
d="M809.5 664q93.5 -46 142.5 -128.5t49 -192.5q0 -92 -31.5 -172.5t-88 -129t-128.5 -48.5q-52 0 -85.5 18t-46.5 52q-64 -70 -171 -70q-58 0 -104.5 26t-73.5 74.5t-27 112.5q0 79 34.5 146t95 106.5t135.5 39.5q111 0 157 -79l15 72h136l-65 -325q-3 -13 -3 -23
q0 -40 41 -40q33 0 58 36.5t38 91t13 106.5q0 131 -83 204.5t-243 73.5q-127 0 -224.5 -56t-151.5 -153.5t-54 -217.5q0 -89 37 -156.5t108 -104.5t170 -37q101 0 189 38l22 -92q-46 -19 -104.5 -30.5t-114.5 -11.5q-128 0 -223 49t-145.5 136.5t-50.5 200.5q0 151 71 272
t197.5 189.5t287.5 68.5q128 0 221.5 -46zM568 130q33 22 51.5 60t18.5 83q0 52 -29.5 80.5t-81.5 28.5q-63 0 -103 -44.5t-40 -119.5q0 -53 29 -81.5t79 -28.5q43 0 76 22z" />
    <glyph glyph-name="A" unicode="A" horiz-adv-x="766" 
d="M527 150h-326l-91 -150h-173l453 700h160l172 -700h-162zM500 273l-59 270l-165 -270h224z" />
    <glyph glyph-name="B" unicode="B" horiz-adv-x="765" 
d="M686.5 307.5q24.5 -35.5 24.5 -86.5q0 -109 -86 -165t-229 -56h-367l140 700h338q113 0 174 -41.5t61 -118.5q0 -64 -33.5 -109.5t-91.5 -69.5q45 -18 69.5 -53.5zM305 578l-33 -165h165q64 0 99.5 25.5t35.5 73.5q0 66 -103 66h-164zM512 148q38 26 38 75q0 72 -105 72
h-196l-34 -173h191q68 0 106 26z" />
    <glyph glyph-name="C" unicode="C" horiz-adv-x="733" 
d="M213.5 26q-78.5 38 -120.5 107t-42 159q0 119 54.5 214.5t153.5 150.5t227 55q94 0 166 -32t109 -92l-117 -96q-56 82 -169 82q-77 0 -136 -36t-91.5 -98t-32.5 -138q0 -81 51.5 -128.5t144.5 -47.5q111 0 186 81l96 -98q-104 -121 -296 -121q-105 0 -183.5 38z" />
    <glyph glyph-name="D" unicode="D" horiz-adv-x="826" 
d="M169 700h293q107 0 184.5 -35.5t119 -101.5t41.5 -155q0 -122 -55 -214.5t-153.5 -143t-227.5 -50.5h-342zM376 133q82 0 142.5 34.5t92.5 95t32 136.5q0 79 -51 123.5t-148 44.5h-139l-87 -434h158z" />
    <glyph glyph-name="E" unicode="E" horiz-adv-x="671" 
d="M304 570l-30 -152h325l-25 -126h-326l-32 -162h382l-27 -130h-542l140 700h529l-27 -130h-367z" />
    <glyph glyph-name="F" unicode="F" horiz-adv-x="639" 
d="M305 570l-37 -185h325l-27 -130h-323l-51 -255h-163l140 700h529l-27 -130h-366z" />
    <glyph glyph-name="G" unicode="G" horiz-adv-x="771" 
d="M575 361h148l-58 -288q-53 -41 -123 -63t-145 -22q-105 0 -183 38t-120.5 107t-42.5 159q0 119 55 215t155 150.5t230 54.5q100 0 173.5 -31t118.5 -91l-116 -94q-35 41 -79 59.5t-104 18.5q-80 0 -141 -35.5t-94.5 -97.5t-33.5 -139q0 -81 52.5 -128.5t150.5 -47.5
q62 0 116 25z" />
    <glyph glyph-name="H" unicode="H" horiz-adv-x="808" 
d="M811 700l-140 -700h-162l57 285h-317l-57 -285h-163l140 700h163l-55 -275h317l55 275h162z" />
    <glyph glyph-name="I" unicode="I" horiz-adv-x="328" 
d="M169 700h163l-140 -700h-163z" />
    <glyph glyph-name="J" unicode="J" horiz-adv-x="541" 
d="M41 15q-58 27 -90 78l107 102q46 -74 123 -74q94 0 116 109l67 340h-245l26 130h406l-93 -462q-26 -134 -94 -192t-185 -58q-80 0 -138 27z" />
    <glyph glyph-name="K" unicode="K" horiz-adv-x="740" 
d="M457 376l243 -376h-182l-180 274l-113 -100l-35 -174h-161l140 700h161l-64 -321l363 321h196z" />
    <glyph glyph-name="L" unicode="L" horiz-adv-x="604" 
d="M169 700h163l-114 -568h351l-27 -132h-513z" />
    <glyph glyph-name="M" unicode="M" horiz-adv-x="955" 
d="M957 700l-139 -700h-152l82 416l-267 -342h-72l-144 346l-84 -420h-152l140 700h132l175 -436l342 436h139z" />
    <glyph glyph-name="N" unicode="N" horiz-adv-x="808" 
d="M811 700l-140 -700h-133l-261 438l-88 -438h-160l140 700h134l261 -439l87 439h160z" />
    <glyph glyph-name="O" unicode="O" horiz-adv-x="844" 
d="M210 26q-77 38 -118 107t-41 159q0 119 54.5 214.5t153 150.5t225.5 55q105 0 182 -38t118 -107t41 -159q0 -119 -54.5 -214.5t-153 -150.5t-225.5 -55q-105 0 -182 38zM541 163q58 37 89 99t31 137q0 80 -50 127.5t-141 47.5q-77 0 -135 -37t-89 -99t-31 -137
q0 -80 50 -127.5t141 -47.5q77 0 135 37z" />
    <glyph glyph-name="P" unicode="P" horiz-adv-x="732" 
d="M654.5 642.5q71.5 -57.5 71.5 -160.5q0 -88 -41.5 -153.5t-118 -100.5t-180.5 -35h-156l-38 -193h-163l140 700h283q131 0 202.5 -57.5zM518 362q44 37 44 106q0 50 -33.5 75t-96.5 25h-127l-49 -243h137q81 0 125 37z" />
    <glyph glyph-name="Q" unicode="Q" horiz-adv-x="844" 
d="M661 -28.5q31 12.5 55 36.5l61 -97q-33 -35 -82.5 -53.5t-106.5 -18.5q-176 0 -272 155q-125 19 -195 99t-70 199t54.5 214.5t153 150.5t225.5 55q105 0 182 -38t118 -107t41 -159q0 -100 -39 -184t-110.5 -142t-167.5 -81q34 -42 90 -42q32 0 63 12.5zM265 173.5
q50 -47.5 141 -47.5q77 0 135 37t89 99t31 137q0 80 -50 127.5t-141 47.5q-77 0 -135 -37t-89 -99t-31 -137q0 -80 50 -127.5z" />
    <glyph glyph-name="R" unicode="R" horiz-adv-x="735" 
d="M675 315q-53 -70 -147 -99l122 -216h-171l-110 196h-138l-39 -196h-163l140 700h285q130 0 202 -57t72 -160q0 -98 -53 -168zM519.5 362q44.5 37 44.5 106q0 50 -34 75t-97 25h-128l-49 -243h138q81 0 125.5 37z" />
    <glyph glyph-name="S" unicode="S" horiz-adv-x="638" 
d="M114 10q-76 22 -122 56l66 125q48 -35 108 -54t123 -19q67 0 106 22t39 60q0 31 -31 47.5t-99 35.5q-68 20 -111 38.5t-74.5 55.5t-31.5 98q0 71 39.5 125t112 83t168.5 29q71 0 134 -15.5t108 -44.5l-61 -124q-39 27 -88 40.5t-102 13.5q-69 0 -109 -24t-40 -62
q0 -23 17 -38.5t43 -25t73 -22.5q67 -18 110 -36.5t73.5 -54t30.5 -93.5q0 -72 -40 -125.5t-113 -83t-170 -29.5q-83 0 -159 22z" />
    <glyph glyph-name="T" unicode="T" horiz-adv-x="618" 
d="M287 568h-224l27 132h610l-27 -132h-223l-114 -568h-162z" />
    <glyph glyph-name="U" unicode="U" horiz-adv-x="788" 
d="M152 53.5q-75 65.5 -75 179.5q0 33 8 75l78 392h163l-78 -389q-6 -33 -6 -59q0 -63 34.5 -94.5t100.5 -31.5q74 0 118 44t64 141l78 389h159l-79 -399q-64 -313 -358 -313q-132 0 -207 65.5z" />
    <glyph glyph-name="V" unicode="V" horiz-adv-x="746" 
d="M842 700l-443 -700h-159l-163 700h167l113 -499l317 499h168z" />
    <glyph glyph-name="W" unicode="W" horiz-adv-x="1163" 
d="M1228 700l-370 -700h-173l-61 471l-253 -471h-174l-89 700h160l62 -492l263 492h150l60 -496l264 496h161z" />
    <glyph glyph-name="X" unicode="X" horiz-adv-x="714" 
d="M463 353l192 -353h-175l-124 238l-212 -238h-194l335 363l-181 337h173l117 -225l204 225h184z" />
    <glyph glyph-name="Y" unicode="Y" horiz-adv-x="676" 
d="M413 243l-48 -243h-162l49 250l-180 450h162l125 -312l251 312h167z" />
    <glyph glyph-name="Z" unicode="Z" horiz-adv-x="671" 
d="M701 595l-471 -463h392l-27 -132h-612l21 105l472 463h-369l27 132h588z" />
    <glyph glyph-name="bracketleft" unicode="[" horiz-adv-x="369" 
d="M176 742h271l-24 -123h-114l-138 -690h114l-24 -123h-272z" />
    <glyph glyph-name="backslash" unicode="\" horiz-adv-x="392" 
d="M218 -100l-147 942h134l147 -942h-134z" />
    <glyph glyph-name="bracketright" unicode="]" horiz-adv-x="368" 
d="M-76 -194l24 123h114l138 690h-115l25 123h271l-187 -936h-270z" />
    <glyph glyph-name="asciicircum" unicode="^" horiz-adv-x="600" 
d="M404 141l-64 296l-182 -296h-126l264 418h124l97 -418h-113z" />
    <glyph glyph-name="underscore" unicode="_" horiz-adv-x="500" 
d="M-54 0h500l-18 -90h-500z" />
    <glyph glyph-name="grave" unicode="`" horiz-adv-x="600" 
d="M185 751h167l106 -144h-121z" />
    <glyph glyph-name="a" unicode="a" horiz-adv-x="690" 
d="M672 538l-107 -538h-148l10 53q-67 -61 -165 -61q-63 0 -116 29t-84.5 83.5t-31.5 128.5q0 89 39.5 160.5t107.5 112t150 40.5q124 0 175 -81l14 73h156zM392 143.5q36 22.5 56 62.5t20 92q0 55 -32.5 87t-90.5 32q-46 0 -82 -22.5t-56 -62.5t-20 -92q0 -55 32.5 -87
t90.5 -32q46 0 82 22.5z" />
    <glyph glyph-name="b" unicode="b" horiz-adv-x="690" 
d="M544.5 517q53.5 -29 85 -83.5t31.5 -128.5q0 -89 -39.5 -160.5t-107.5 -112t-151 -40.5q-63 0 -109 22t-71 66l-16 -80h-148l148 742h156l-50 -250q65 54 155 54q63 0 116.5 -29zM427 143.5q36 22.5 56 62.5t20 92q0 55 -32.5 87t-90.5 32q-45 0 -81 -22.5t-56 -62.5
t-20 -92q0 -55 32 -87t90 -32q46 0 82 22.5z" />
    <glyph glyph-name="c" unicode="c" horiz-adv-x="591" 
d="M158 22q-62 30 -95.5 84.5t-33.5 126.5q0 89 42 160t117 112t169 41q86 0 148.5 -35.5t93.5 -100.5l-132 -66q-35 73 -120 73q-46 0 -82.5 -22.5t-57 -62.5t-20.5 -91q0 -55 33 -87.5t92 -32.5q86 0 132 72l115 -72q-39 -61 -106.5 -95t-149.5 -34q-83 0 -145 30z" />
    <glyph glyph-name="d" unicode="d" horiz-adv-x="692" 
d="M714 742l-148 -742h-148l11 54q-68 -62 -165 -62q-63 0 -116 29t-84.5 83.5t-31.5 128.5q0 89 39.5 160.5t107.5 112t150 40.5q59 0 103.5 -20t70.5 -59l55 275h156zM394 143.5q36 22.5 56 62.5t20 92q0 55 -32.5 87t-90.5 32q-46 0 -82 -22.5t-56 -62.5t-20 -92
q0 -55 32.5 -87t90.5 -32q46 0 82 22.5z" />
    <glyph glyph-name="e" unicode="e" horiz-adv-x="628" 
d="M594 227h-412q8 -110 139 -110q41 0 78.5 13t65.5 37l65 -103q-45 -36 -103 -54t-122 -18q-83 0 -145.5 29.5t-96 84.5t-33.5 127q0 89 40.5 160.5t112.5 112t164 40.5q78 0 135.5 -29t89 -83t31.5 -125q0 -37 -9 -82zM247 399.5q-38 -29.5 -54 -81.5h267
q0 52 -32.5 81.5t-87.5 29.5t-93 -29.5z" />
    <glyph glyph-name="f" unicode="f" horiz-adv-x="387" 
d="M327.5 607.5q-20.5 -19.5 -28.5 -61.5l-4 -20h137l-24 -120h-133l-81 -406h-156l81 406h-84l24 120h84l6 31q19 90 78.5 141.5t155.5 51.5q36 0 68.5 -8t55.5 -22l-61 -112q-25 19 -62 19q-36 0 -56.5 -19.5z" />
    <glyph glyph-name="g" unicode="g" horiz-adv-x="700" 
d="M681 538l-89 -448q-30 -152 -115.5 -222t-228.5 -70q-78 0 -143.5 18t-112.5 53l74 113q32 -27 82.5 -42.5t106.5 -15.5q79 0 120 34.5t56 104.5l4 23q-65 -60 -164 -60q-67 0 -121 27.5t-85.5 78.5t-31.5 120q0 82 39 149t107.5 106t153.5 39q63 0 110.5 -23.5
t71.5 -72.5l17 88h149zM425 198q44 44 44 113q0 49 -32 77.5t-89 28.5q-69 0 -113.5 -44t-44.5 -113q0 -49 33 -77.5t90 -28.5q68 0 112 44z" />
    <glyph glyph-name="h" unicode="h" horiz-adv-x="691" 
d="M582 498q53 -48 53 -136q0 -32 -7 -64l-60 -298h-156l58 288q4 17 4 37q0 42 -23 64t-69 22q-60 0 -99.5 -34.5t-53.5 -103.5l-54 -273h-156l148 742h156l-50 -253q69 57 166 57q90 0 143 -48z" />
    <glyph glyph-name="i" unicode="i" horiz-adv-x="300" 
d="M126 538h155l-107 -538h-155zM164.5 636.5q-25.5 23.5 -25.5 57.5q0 40 28.5 66.5t74.5 26.5q41 0 66.5 -22.5t25.5 -55.5q0 -43 -29 -69.5t-75 -26.5q-40 0 -65.5 23.5z" />
    <glyph glyph-name="j" unicode="j" horiz-adv-x="306" 
d="M-180 -172l62 113q27 -19 65 -19q32 0 50.5 19t26.5 60l108 537h156l-107 -533q-41 -207 -232 -207q-78 0 -129 30zM170.5 636.5q-25.5 23.5 -25.5 57.5q0 40 28.5 66.5t74.5 26.5q41 0 66.5 -22.5t25.5 -55.5q0 -43 -29 -69.5t-75 -26.5q-40 0 -65.5 23.5z" />
    <glyph glyph-name="k" unicode="k" horiz-adv-x="645" 
d="M420 304l185 -304h-181l-128 209l-95 -79l-26 -130h-156l148 742h156l-83 -415l258 211h203z" />
    <glyph glyph-name="l" unicode="l" horiz-adv-x="301" 
d="M167 742h156l-148 -742h-156z" />
    <glyph glyph-name="m" unicode="m" horiz-adv-x="1049" 
d="M941 498.5q52 -47.5 52 -134.5q0 -32 -7 -66l-59 -298h-156l57 287q4 20 4 41q0 41 -21.5 62t-63.5 21q-113 0 -141 -135l-55 -276h-156l57 287q4 20 4 40q0 41 -21.5 62.5t-63.5 21.5q-113 0 -142 -137l-54 -274h-156l107 538h148l-12 -56q70 64 169 64q56 0 99.5 -22.5
t65.5 -65.5q39 43 91 65.5t114 22.5q88 0 140 -47.5z" />
    <glyph glyph-name="n" unicode="n" horiz-adv-x="691" 
d="M582 498.5q53 -47.5 53 -135.5q0 -33 -7 -65l-60 -298h-156l58 288q4 17 4 37q0 42 -23 64t-69 22q-60 0 -99.5 -34.5t-53.5 -103.5l-54 -273h-156l107 538h148l-12 -58q72 66 177 66q90 0 143 -47.5z" />
    <glyph glyph-name="o" unicode="o" horiz-adv-x="654" 
d="M157.5 22q-61.5 30 -95 84.5t-33.5 126.5q0 89 42 160t116 112t167 41q82 0 143 -30t94.5 -84.5t33.5 -126.5q0 -89 -41.5 -160t-116 -112t-167.5 -41q-81 0 -142.5 30zM391 143.5q36 22.5 56 62.5t20 92q0 55 -32 87t-90 32q-46 0 -82 -22.5t-56 -62.5t-20 -92
q0 -55 32.5 -87t90.5 -32q45 0 81 22.5z" />
    <glyph glyph-name="p" unicode="p" horiz-adv-x="690" 
d="M544.5 517q53.5 -29 85 -83.5t31.5 -128.5q0 -89 -39.5 -160.5t-107.5 -112t-151 -40.5q-123 0 -174 80l-53 -266h-156l146 732h148l-11 -53q67 61 165 61q63 0 116.5 -29zM427 143.5q36 22.5 56 62.5t20 92q0 55 -32.5 87t-90.5 32q-45 0 -81 -22.5t-56 -62.5t-20 -92
q0 -55 32 -87t90 -32q46 0 82 22.5z" />
    <glyph glyph-name="q" unicode="q" horiz-adv-x="690" 
d="M672 538l-146 -732h-156l47 238q-64 -52 -155 -52q-63 0 -116 29t-84.5 83.5t-31.5 128.5q0 89 39.5 160.5t107.5 112t150 40.5q63 0 109.5 -22.5t70.5 -67.5l16 82h149zM219.5 153q32.5 -32 90.5 -32q46 0 82 22.5t56 62.5t20 92q0 55 -32.5 87t-90.5 32
q-46 0 -82 -22.5t-56 -62.5t-20 -92q0 -55 32.5 -87z" />
    <glyph glyph-name="r" unicode="r" horiz-adv-x="431" 
d="M345.5 529q49.5 17 116.5 17l-28 -144q-28 2 -36 2q-71 0 -113.5 -35t-57.5 -109l-52 -260h-156l107 538h148l-13 -64q35 38 84.5 55z" />
    <glyph glyph-name="s" unicode="s" horiz-adv-x="531" 
d="M82.5 7.5q-62.5 15.5 -97.5 40.5l60 113q35 -23 85.5 -37t101.5 -14q53 0 79 13.5t26 38.5q0 20 -23 29t-74 19q-58 11 -95.5 24t-65 42.5t-27.5 80.5q0 89 74.5 139t195.5 50q56 0 109 -12t90 -33l-56 -114q-66 41 -159 41q-51 0 -77.5 -15t-26.5 -38q0 -21 23 -30.5
t77 -20.5q57 -11 93.5 -23.5t63.5 -41.5t27 -79q0 -90 -75.5 -139t-195.5 -49q-70 0 -132.5 15.5z" />
    <glyph glyph-name="t" unicode="t" horiz-adv-x="435" 
d="M231 190q-2 -8 -2 -22q0 -52 57 -52q31 0 63 19l23 -111q-52 -32 -134 -32q-76 0 -122 40t-46 110q0 20 5 47l43 217h-83l24 120h83l26 131h156l-26 -131h134l-24 -120h-134z" />
    <glyph glyph-name="u" unicode="u" horiz-adv-x="687" 
d="M668 538l-107 -538h-148l11 58q-35 -33 -80 -49.5t-95 -16.5q-88 0 -140.5 48t-52.5 135q0 33 7 65l59 298h156l-57 -288q-4 -19 -4 -39q0 -84 90 -84q59 0 97.5 34.5t52.5 103.5l55 273h156z" />
    <glyph glyph-name="v" unicode="v" horiz-adv-x="598" 
d="M660 538l-334 -538h-161l-119 538h154l78 -367l226 367h156z" />
    <glyph glyph-name="w" unicode="w" horiz-adv-x="941" 
d="M997 538l-297 -538h-154l-62 335l-185 -335h-152l-95 538h142l59 -362l202 362h134l61 -362l200 362h147z" />
    <glyph glyph-name="x" unicode="x" horiz-adv-x="595" 
d="M383 269l150 -269h-165l-88 165l-155 -165h-178l269 276l-143 262h162l85 -158l150 158h172z" />
    <glyph glyph-name="y" unicode="y" horiz-adv-x="598" 
d="M660 538l-358 -574q-58 -94 -112.5 -130t-133.5 -36q-42 0 -82.5 13t-63.5 34l72 112q36 -33 86 -33q30 0 52 15t45 51l5 9l-124 539h156l80 -366l224 366h154z" />
    <glyph glyph-name="z" unicode="z" horiz-adv-x="543" 
d="M541 444l-332 -324h276l-24 -120h-480l19 94l332 324h-259l24 120h462z" />
    <glyph glyph-name="braceleft" unicode="{" horiz-adv-x="392" 
d="M470 742l-24 -123h-17q-40 0 -60 -17t-27 -53l-33 -163q-11 -53 -31 -78.5t-59 -35.5q49 -18 49 -75q0 -18 -4 -35l-31 -154q-2 -8 -2 -23q0 -28 15 -42t43 -14h19l-25 -123h-57q-74 0 -115.5 37t-41.5 102q0 17 5 44l35 177q1 5 1 14q0 33 -35 33h-34l24 122h34
q43 0 53 47l37 184q18 93 71 134.5t153 41.5h57z" />
    <glyph glyph-name="bar" unicode="|" horiz-adv-x="309" 
d="M178 742h142l-187 -936h-142z" />
    <glyph glyph-name="braceright" unicode="}" horiz-adv-x="392" 
d="M353 335l-25 -122h-33q-44 0 -53 -47l-38 -184q-18 -92 -70.5 -134t-152.5 -42h-58l24 123h18q39 0 59 17t28 53l33 163q10 53 30 78.5t60 35.5q-50 20 -50 75q0 18 4 35l31 154q2 8 2 23q0 28 -15 42t-43 14h-18l24 123h58q74 0 115.5 -37t41.5 -102q0 -19 -5 -44
l-36 -177q-1 -5 -1 -14q0 -33 35 -33h35z" />
    <glyph glyph-name="asciitilde" unicode="~" horiz-adv-x="599" 
d="M344.5 265q-26.5 14 -55.5 39q-21 17 -35.5 25.5t-30.5 8.5q-30 0 -50 -21t-27 -57h-98q13 91 62 141t113 50q39 0 65.5 -14t55.5 -39q21 -17 35.5 -25.5t30.5 -8.5q30 0 49.5 20.5t26.5 57.5h98q-13 -91 -61.5 -141t-112.5 -50q-39 0 -65.5 14z" />
    <glyph glyph-name="uni00A0" unicode="&#xa0;" horiz-adv-x="283" 
 />
    <glyph glyph-name="exclamdown" unicode="&#xa1;" horiz-adv-x="289" 
d="M111.5 389q-25.5 24 -25.5 59q0 41 29 69.5t72 28.5q39 0 65 -24.5t26 -60.5q0 -41 -29 -68.5t-71 -27.5q-41 0 -66.5 24zM88 295h123l-58 -449h-186z" />
    <glyph glyph-name="cent" unicode="&#xa2;" horiz-adv-x="591" 
d="M444 193l115 -72q-37 -58 -101 -92t-143 -37l-22 -112h-99l24 121q-88 21 -138.5 82t-50.5 150q0 84 37.5 152.5t105.5 110.5t154 49l23 113h100l-24 -118q61 -12 105.5 -45t68.5 -85l-132 -66q-23 48 -68 65l-57 -286q65 11 102 70zM202 177q15 -27 43 -42l55 275
q-51 -15 -82 -60.5t-31 -108.5q0 -37 15 -64z" />
    <glyph glyph-name="sterling" unicode="&#xa3;" horiz-adv-x="668" 
d="M387.5 538q-47.5 -36 -64.5 -117l-4 -22h239l-19 -97h-240l-34 -172h343l-26 -130h-606l27 130h100l34 172h-101l19 97h102l5 26q29 144 127 215.5t238 71.5q128 0 203 -49l-68 -124q-60 35 -146 35q-81 0 -128.5 -36z" />
    <glyph glyph-name="currency" unicode="&#xa4;" horiz-adv-x="700" 
d="M583 184l101 -101l-87 -91l-106 105q-60 -35 -131 -35q-70 0 -132 35l-106 -105l-87 91l102 102q-40 60 -40 136q0 72 37 132l-99 99l87 91l101 -100q63 38 137 38t136 -38l101 100l87 -91l-98 -98q37 -63 37 -133q0 -73 -40 -137zM430.5 203.5q32.5 18.5 51.5 49.5
t19 68t-19 68t-51.5 49.5t-70.5 18.5t-70.5 -18.5t-51 -49.5t-18.5 -68t18.5 -68t51 -49.5t70.5 -18.5t70.5 18.5z" />
    <glyph glyph-name="yen" unicode="&#xa5;" horiz-adv-x="736" 
d="M495 311h150l-17 -83h-187l-11 -55h187l-17 -83h-186l-18 -90h-163l18 90h-188l17 83h187l11 55h-187l17 83h158l-194 389h166l153 -315l277 315h169z" />
    <glyph glyph-name="brokenbar" unicode="&#xa6;" horiz-adv-x="309" 
d="M178 742h142l-70 -350h-142zM61 156h142l-70 -350h-142z" />
    <glyph glyph-name="section" unicode="&#xa7;" horiz-adv-x="522" 
d="M269 575q-31 -19 -31 -46q0 -24 23.5 -36t73.5 -24q51 -13 85 -27t58 -43t24 -78q0 -48 -25.5 -86.5t-69.5 -64.5q28 -33 28 -83q0 -59 -34 -103t-94 -67.5t-136 -23.5q-62 0 -117.5 15.5t-91.5 44.5l59 109q74 -55 163 -55q54 0 83 18.5t29 46.5q0 24 -23.5 36t-74.5 25
q-53 15 -86 28.5t-57 42t-24 75.5t25.5 86t70.5 66q-28 33 -28 83q0 61 35.5 104.5t98.5 66.5t143 23q52 0 107.5 -12.5t92.5 -35.5l-59 -108q-65 42 -159 42q-58 0 -89 -19zM341 339q-24 13 -78 28l-30 8q-32 -12 -48 -31.5t-16 -42.5q0 -26 24.5 -38.5t78.5 -27.5
q10 -2 30 -8q31 12 47 30.5t16 41.5q0 27 -24 40z" />
    <glyph glyph-name="dieresis" unicode="&#xa8;" horiz-adv-x="600" 
d="M229.5 629q-18.5 17 -18.5 45q0 33 22 54.5t52 21.5q28 0 47 -17t19 -45q0 -33 -22.5 -54.5t-52.5 -21.5q-28 0 -46.5 17zM432.5 629q-18.5 17 -18.5 45q0 34 21.5 55t52.5 21q28 0 46.5 -17t18.5 -45q0 -33 -22 -54.5t-52 -21.5q-28 0 -46.5 17z" />
    <glyph glyph-name="copyright" unicode="&#xa9;" horiz-adv-x="785" 
d="M228.5 44q-80.5 47 -127 128t-46.5 178t46.5 178t127.5 128t180 47t179.5 -46t126.5 -126.5t46 -178.5t-47 -179.5t-128 -128.5t-179 -47t-178.5 47zM552.5 100.5q65.5 38.5 103 105t37.5 146.5q0 81 -36.5 146t-101.5 102.5t-146 37.5t-146 -38t-102 -104t-37 -146
t37 -146t101.5 -104t144.5 -38t145.5 38.5zM310.5 174q-48.5 26 -76 72t-27.5 104t27.5 104t76 72t109.5 26q59 0 104.5 -25.5t66.5 -69.5l-90 -53q-27 47 -82 47q-40 0 -67.5 -27.5t-27.5 -73.5t27.5 -73.5t67.5 -27.5q55 0 82 47l90 -52q-21 -45 -66.5 -70.5t-104.5 -25.5
q-61 0 -109.5 26z" />
    <glyph glyph-name="ordfeminine" unicode="&#xaa;" horiz-adv-x="413" 
d="M391.5 721.5q39.5 -28.5 39.5 -84.5q0 -20 -4 -39l-35 -174h-100l7 37q-37 -42 -107 -42q-54 0 -84.5 24t-30.5 61q0 54 45 81.5t118 27.5h83l1 9q0 24 -17.5 37t-51.5 13q-27 0 -55.5 -8t-47.5 -21l-24 68q28 18 68.5 28.5t81.5 10.5q74 0 113.5 -28.5zM303 519l8 37
h-65q-65 0 -65 -39q0 -31 47 -31q49 0 75 33z" />
    <glyph glyph-name="guillemotleft" unicode="&#xab;" horiz-adv-x="568" 
d="M181 265l94 -191h-137l-102 195l180 196h143zM407 265l94 -191h-137l-102 195l180 196h143z" />
    <glyph glyph-name="logicalnot" unicode="&#xac;" horiz-adv-x="600" 
d="M508 115h-129l35 175h-348l24 121h476z" />
    <glyph glyph-name="uni00AD" unicode="&#xad;" horiz-adv-x="386" 
d="M67 344h283l-25 -125h-283z" />
    <glyph glyph-name="registered" unicode="&#xae;" horiz-adv-x="785" 
d="M588.5 657q80.5 -46 126.5 -126.5t46 -178.5t-47 -179.5t-128 -128.5t-179 -47t-178.5 47t-127 128t-46.5 178t46.5 178t127.5 128t180 47t179.5 -46zM552.5 100.5q65.5 38.5 103 105t37.5 146.5q0 81 -36.5 146t-101.5 102.5t-146 37.5t-146 -38t-102 -104t-37 -146
t37 -146t101.5 -104t144.5 -38t145.5 38.5zM574.5 333.5q-18.5 -30.5 -54.5 -47.5l85 -130h-104l-73 112h-4h-65v-112h-104v388h169q79 0 124 -37.5t45 -100.5q0 -42 -18.5 -72.5zM417 346q35 0 54.5 15.5t19.5 44.5t-19.5 45t-54.5 16h-59v-121h59z" />
    <glyph glyph-name="macron" unicode="&#xaf;" horiz-adv-x="600" 
d="M206 723h369l-17 -88h-369z" />
    <glyph glyph-name="degree" unicode="&#xb0;" horiz-adv-x="417" 
d="M174.5 388.5q-40.5 22.5 -64 62t-23.5 86.5t23.5 86.5t64 62.5t88.5 23t88 -23t63.5 -62.5t23.5 -86.5t-23.5 -86.5t-63.5 -62t-88 -22.5t-88.5 22.5zM329.5 470q26.5 27 26.5 67t-26.5 67t-66.5 27t-66.5 -27t-26.5 -67t26.5 -67t66.5 -27t66.5 27z" />
    <glyph glyph-name="plusminus" unicode="&#xb1;" horiz-adv-x="599" 
d="M581 490l-24 -118h-173l-32 -164h-130l33 164h-174l24 118h173l33 164h129l-32 -164h173zM32 123h476l-24 -123h-476z" />
    <glyph glyph-name="uni00B2" unicode="&#xb2;" horiz-adv-x="430" 
d="M233 411h184l-16 -84h-349l13 67l204 145q36 26 49.5 43.5t13.5 36.5q0 21 -17 32.5t-50 11.5q-59 0 -99 -42l-68 51q29 36 77 57t110 21q73 0 116.5 -32.5t43.5 -85.5q0 -25 -8 -45t-30.5 -44t-67.5 -56z" />
    <glyph glyph-name="uni00B3" unicode="&#xb3;" horiz-adv-x="430" 
d="M455 675l-119 -100q49 -10 74 -37.5t25 -68.5q0 -44 -27 -78.5t-75.5 -53t-110.5 -18.5q-54 0 -102 13.5t-75 35.5l45 79q27 -19 65 -30t75 -11q45 0 69.5 14.5t24.5 41.5q0 40 -65 40h-65l14 68l105 89h-199l16 83h339z" />
    <glyph glyph-name="acute" unicode="&#xb4;" horiz-adv-x="600" 
d="M425 751h172l-196 -144h-126z" />
    <glyph glyph-name="uni00B5" unicode="&#xb5;" horiz-adv-x="690" 
d="M672 538l-107 -538h-141l12 60q-31 -34 -69.5 -51t-78.5 -17q-69 0 -108 33l-44 -219h-156l146 732h156l-57 -288q-4 -19 -4 -39q0 -84 91 -84q58 0 96.5 34.5t52.5 103.5l55 273h156z" />
    <glyph glyph-name="paragraph" unicode="&#xb6;" horiz-adv-x="686" 
d="M245 360q-77 3 -127 45.5t-50 115.5q0 111 77.5 166t208.5 55h343l-168 -842h-127l146 729h-122l-146 -729h-127z" />
    <glyph glyph-name="periodcentered" unicode="&#xb7;" horiz-adv-x="302" 
d="M82 210q-26 26 -26 64q0 46 30 75t73 29q41 0 66.5 -25t25.5 -65q0 -45 -30.5 -74.5t-72.5 -29.5q-40 0 -66 26z" />
    <glyph glyph-name="cedilla" unicode="&#xb8;" horiz-adv-x="600" 
d="M81 -211l34 67q30 -15 67 -15q27 0 40.5 9t14.5 24q3 28 -43 28h-35l48 106h83l-25 -58q33 -4 51.5 -23.5t18.5 -45.5q0 -53 -43.5 -83t-116.5 -30q-55 0 -94 21z" />
    <glyph glyph-name="uni00B9" unicode="&#xb9;" horiz-adv-x="430" 
d="M405 409l-16 -82h-305l16 82h103l50 251h-93l16 82h206l-67 -333h90z" />
    <glyph glyph-name="ordmasculine" unicode="&#xba;" horiz-adv-x="428" 
d="M133.5 460.5q-47.5 41.5 -47.5 106.5q0 53 27.5 94.5t75.5 65t108 23.5q76 0 123 -41t47 -106q0 -54 -27.5 -95.5t-75 -65t-107.5 -23.5q-76 0 -123.5 41.5zM334 528.5q27 26.5 27 69.5q0 32 -20 50.5t-53 18.5q-43 0 -69.5 -27.5t-26.5 -68.5q0 -31 20 -50t54 -19
q41 0 68 26.5z" />
    <glyph glyph-name="guillemotright" unicode="&#xbb;" horiz-adv-x="569" 
d="M307 269l-180 -195h-143l178 200l-94 191h137zM533 269l-180 -195h-143l178 200l-94 191h137z" />
    <glyph glyph-name="onequarter" unicode="&#xbc;" horiz-adv-x="1044" 
d="M397 367l-16 -82h-305l16 82h103l50 251h-93l16 82h206l-67 -333h90zM781 700h126l-612 -700h-125zM989 84h-68l-17 -84h-108l18 84h-226l14 70l237 261h124l-225 -246h104l14 70h95l-14 -70h68z" />
    <glyph glyph-name="onehalf" unicode="&#xbd;" horiz-adv-x="1044" 
d="M397 367l-16 -82h-305l16 82h103l50 251h-93l16 82h206l-67 -333h90zM781 700h126l-612 -700h-125zM782 84h184l-16 -84h-349l13 67l204 145q36 26 49.5 43.5t13.5 36.5q0 21 -17 32.5t-50 11.5q-59 0 -99 -42l-68 51q29 36 77 57t110 21q73 0 116.5 -32.5t43.5 -85.5
q0 -25 -8 -45t-30.5 -44t-67.5 -56z" />
    <glyph glyph-name="threequarters" unicode="&#xbe;" horiz-adv-x="1044" 
d="M447 633l-119 -100q49 -10 74 -37.5t25 -68.5q0 -44 -27 -78.5t-75.5 -53t-110.5 -18.5q-54 0 -102 13.5t-75 35.5l45 79q27 -19 65 -30t75 -11q45 0 69.5 14.5t24.5 41.5q0 40 -65 40h-65l14 68l105 89h-199l16 83h339zM781 700h126l-612 -700h-125zM989 84h-68l-17 -84
h-108l18 84h-226l14 70l237 261h124l-225 -246h104l14 70h95l-14 -70h68z" />
    <glyph glyph-name="questiondown" unicode="&#xbf;" horiz-adv-x="589" 
d="M264.5 389q-25.5 24 -25.5 59q0 41 28.5 69.5t71.5 28.5q40 0 65.5 -24.5t25.5 -59.5q0 -42 -28.5 -69.5t-71.5 -27.5q-40 0 -65.5 24zM66 -120q-63 45 -63 120q0 46 17.5 79.5t42.5 56.5t67 53q45 33 67.5 54.5t29.5 51.5h151q-10 -50 -40 -82.5t-82 -70.5
q-45 -33 -66 -56.5t-21 -55.5q0 -29 25.5 -46.5t72.5 -17.5q48 0 88 19.5t69 55.5l104 -76q-45 -61 -121 -95.5t-172 -34.5q-106 0 -169 45z" />
    <glyph glyph-name="Agrave" unicode="&#xc0;" horiz-adv-x="766" 
d="M527 150h-326l-91 -150h-173l453 700h160l172 -700h-162zM500 273l-59 270l-165 -270h224zM297 901h167l106 -144h-121z" />
    <glyph glyph-name="Aacute" unicode="&#xc1;" horiz-adv-x="766" 
d="M527 150h-326l-91 -150h-173l453 700h160l172 -700h-162zM500 273l-59 270l-165 -270h224zM537 901h172l-196 -144h-126z" />
    <glyph glyph-name="Acircumflex" unicode="&#xc2;" horiz-adv-x="766" 
d="M527 150h-326l-91 -150h-173l453 700h160l172 -700h-162zM500 273l-59 270l-165 -270h224zM570 757l-77 75l-97 -75h-117l152 144h137l113 -144h-111z" />
    <glyph glyph-name="Atilde" unicode="&#xc3;" horiz-adv-x="766" 
d="M527 150h-326l-91 -150h-173l453 700h160l172 -700h-162zM500 273l-59 270l-165 -270h224zM517.5 764q-19.5 10 -42.5 28q-19 14 -29 19.5t-22 5.5q-20 0 -34 -15t-19 -41h-79q11 71 46 108.5t87 37.5q26 0 45.5 -10t42.5 -28q18 -14 28.5 -20t22.5 -6q21 0 34.5 14.5
t18.5 39.5h79q-11 -68 -45.5 -105.5t-86.5 -37.5q-27 0 -46.5 10z" />
    <glyph glyph-name="Adieresis" unicode="&#xc4;" horiz-adv-x="766" 
d="M527 150h-326l-91 -150h-173l453 700h160l172 -700h-162zM500 273l-59 270l-165 -270h224zM341.5 779q-18.5 17 -18.5 45q0 33 22 54.5t52 21.5q28 0 47 -17t19 -45q0 -33 -22.5 -54.5t-52.5 -21.5q-28 0 -46.5 17zM544.5 779q-18.5 17 -18.5 45q0 34 21.5 55t52.5 21
q28 0 46.5 -17t18.5 -45q0 -33 -22 -54.5t-52 -21.5q-28 0 -46.5 17z" />
    <glyph glyph-name="Aring" unicode="&#xc5;" horiz-adv-x="766" 
d="M527 150h-326l-91 -150h-173l453 700h160l172 -700h-162zM500 273l-59 270l-165 -270h224zM415 789q-36 35 -36 86q0 50 36 85.5t88 35.5q53 0 89 -35t36 -86t-36 -86t-89 -35q-52 0 -88 35zM546.5 831.5q17.5 17.5 17.5 43.5t-17.5 43.5t-43.5 17.5q-25 0 -42.5 -17.5
t-17.5 -43.5t17 -43.5t43 -17.5t43.5 17.5z" />
    <glyph glyph-name="AE" unicode="&#xc6;" horiz-adv-x="1082" 
d="M715 570l-30 -152h325l-25 -126h-326l-32 -162h382l-26 -130h-542l30 150h-246l-111 -150h-178l530 700h643l-26 -130h-368zM496 273l59 298h-18l-221 -298h180z" />
    <glyph glyph-name="Ccedilla" unicode="&#xc7;" horiz-adv-x="733" 
d="M213.5 26q-78.5 38 -120.5 107t-42 159q0 119 54.5 214.5t153.5 150.5t227 55q94 0 166 -32t109 -92l-117 -96q-56 82 -169 82q-77 0 -136 -36t-91.5 -98t-32.5 -138q0 -81 51.5 -128.5t144.5 -47.5q111 0 186 81l96 -98q-104 -121 -296 -121q-105 0 -183.5 38zM188 -211
l34 67q30 -15 67 -15q27 0 40.5 9t14.5 24q3 28 -43 28h-35l48 106h83l-25 -58q33 -4 51.5 -23.5t18.5 -45.5q0 -53 -43.5 -83t-116.5 -30q-55 0 -94 21z" />
    <glyph glyph-name="Egrave" unicode="&#xc8;" horiz-adv-x="671" 
d="M304 570l-30 -152h325l-25 -126h-326l-32 -162h382l-27 -130h-542l140 700h529l-27 -130h-367zM262 901h167l106 -144h-121z" />
    <glyph glyph-name="Eacute" unicode="&#xc9;" horiz-adv-x="671" 
d="M304 570l-30 -152h325l-25 -126h-326l-32 -162h382l-27 -130h-542l140 700h529l-27 -130h-367zM502 901h172l-196 -144h-126z" />
    <glyph glyph-name="Ecircumflex" unicode="&#xca;" horiz-adv-x="671" 
d="M304 570l-30 -152h325l-25 -126h-326l-32 -162h382l-27 -130h-542l140 700h529l-27 -130h-367zM535 757l-77 75l-97 -75h-117l152 144h137l113 -144h-111z" />
    <glyph glyph-name="Edieresis" unicode="&#xcb;" horiz-adv-x="671" 
d="M304 570l-30 -152h325l-25 -126h-326l-32 -162h382l-27 -130h-542l140 700h529l-27 -130h-367zM306.5 779q-18.5 17 -18.5 45q0 33 22 54.5t52 21.5q28 0 47 -17t19 -45q0 -33 -22.5 -54.5t-52.5 -21.5q-28 0 -46.5 17zM509.5 779q-18.5 17 -18.5 45q0 34 21.5 55
t52.5 21q28 0 46.5 -17t18.5 -45q0 -33 -22 -54.5t-52 -21.5q-28 0 -46.5 17z" />
    <glyph glyph-name="Igrave" unicode="&#xcc;" horiz-adv-x="328" 
d="M169 700h163l-140 -700h-163zM78 901h167l106 -144h-121z" />
    <glyph glyph-name="Iacute" unicode="&#xcd;" horiz-adv-x="328" 
d="M169 700h163l-140 -700h-163zM318 901h172l-196 -144h-126z" />
    <glyph glyph-name="Icircumflex" unicode="&#xce;" horiz-adv-x="328" 
d="M169 700h163l-140 -700h-163zM351 757l-77 75l-97 -75h-117l152 144h137l113 -144h-111z" />
    <glyph glyph-name="Idieresis" unicode="&#xcf;" horiz-adv-x="328" 
d="M169 700h163l-140 -700h-163zM122.5 779q-18.5 17 -18.5 45q0 33 22 54.5t52 21.5q28 0 47 -17t19 -45q0 -33 -22.5 -54.5t-52.5 -21.5q-28 0 -46.5 17zM325.5 779q-18.5 17 -18.5 45q0 34 21.5 55t52.5 21q28 0 46.5 -17t18.5 -45q0 -33 -22 -54.5t-52 -21.5
q-28 0 -46.5 17z" />
    <glyph glyph-name="Eth" unicode="&#xd0;" horiz-adv-x="839" 
d="M182 700h293q107 0 184.5 -35.5t119 -101.5t41.5 -155q0 -122 -55 -214.5t-153.5 -143t-227.5 -50.5h-342zM389 133q82 0 142.5 34.5t92.5 95t32 136.5q0 79 -51 123.5t-148 44.5h-139l-87 -434h158zM29 410h432l-21 -108h-433z" />
    <glyph glyph-name="Ntilde" unicode="&#xd1;" horiz-adv-x="808" 
d="M811 700l-140 -700h-133l-261 438l-88 -438h-160l140 700h134l261 -439l87 439h160zM539.5 764q-19.5 10 -42.5 28q-19 14 -29 19.5t-22 5.5q-20 0 -34 -15t-19 -41h-79q11 71 46 108.5t87 37.5q26 0 45.5 -10t42.5 -28q18 -14 28.5 -20t22.5 -6q21 0 34.5 14.5
t18.5 39.5h79q-11 -68 -45.5 -105.5t-86.5 -37.5q-27 0 -46.5 10z" />
    <glyph glyph-name="Ograve" unicode="&#xd2;" horiz-adv-x="844" 
d="M210 26q-77 38 -118 107t-41 159q0 119 54.5 214.5t153 150.5t225.5 55q105 0 182 -38t118 -107t41 -159q0 -119 -54.5 -214.5t-153 -150.5t-225.5 -55q-105 0 -182 38zM541 163q58 37 89 99t31 137q0 80 -50 127.5t-141 47.5q-77 0 -135 -37t-89 -99t-31 -137
q0 -80 50 -127.5t141 -47.5q77 0 135 37zM336 901h167l106 -144h-121z" />
    <glyph glyph-name="Oacute" unicode="&#xd3;" horiz-adv-x="844" 
d="M210 26q-77 38 -118 107t-41 159q0 119 54.5 214.5t153 150.5t225.5 55q105 0 182 -38t118 -107t41 -159q0 -119 -54.5 -214.5t-153 -150.5t-225.5 -55q-105 0 -182 38zM541 163q58 37 89 99t31 137q0 80 -50 127.5t-141 47.5q-77 0 -135 -37t-89 -99t-31 -137
q0 -80 50 -127.5t141 -47.5q77 0 135 37zM576 901h172l-196 -144h-126z" />
    <glyph glyph-name="Ocircumflex" unicode="&#xd4;" horiz-adv-x="844" 
d="M210 26q-77 38 -118 107t-41 159q0 119 54.5 214.5t153 150.5t225.5 55q105 0 182 -38t118 -107t41 -159q0 -119 -54.5 -214.5t-153 -150.5t-225.5 -55q-105 0 -182 38zM541 163q58 37 89 99t31 137q0 80 -50 127.5t-141 47.5q-77 0 -135 -37t-89 -99t-31 -137
q0 -80 50 -127.5t141 -47.5q77 0 135 37zM609 757l-77 75l-97 -75h-117l152 144h137l113 -144h-111z" />
    <glyph glyph-name="Otilde" unicode="&#xd5;" horiz-adv-x="844" 
d="M210 26q-77 38 -118 107t-41 159q0 119 54.5 214.5t153 150.5t225.5 55q105 0 182 -38t118 -107t41 -159q0 -119 -54.5 -214.5t-153 -150.5t-225.5 -55q-105 0 -182 38zM541 163q58 37 89 99t31 137q0 80 -50 127.5t-141 47.5q-77 0 -135 -37t-89 -99t-31 -137
q0 -80 50 -127.5t141 -47.5q77 0 135 37zM556.5 764q-19.5 10 -42.5 28q-19 14 -29 19.5t-22 5.5q-20 0 -34 -15t-19 -41h-79q11 71 46 108.5t87 37.5q26 0 45.5 -10t42.5 -28q18 -14 28.5 -20t22.5 -6q21 0 34.5 14.5t18.5 39.5h79q-11 -68 -45.5 -105.5t-86.5 -37.5
q-27 0 -46.5 10z" />
    <glyph glyph-name="Odieresis" unicode="&#xd6;" horiz-adv-x="844" 
d="M210 26q-77 38 -118 107t-41 159q0 119 54.5 214.5t153 150.5t225.5 55q105 0 182 -38t118 -107t41 -159q0 -119 -54.5 -214.5t-153 -150.5t-225.5 -55q-105 0 -182 38zM541 163q58 37 89 99t31 137q0 80 -50 127.5t-141 47.5q-77 0 -135 -37t-89 -99t-31 -137
q0 -80 50 -127.5t141 -47.5q77 0 135 37zM380.5 779q-18.5 17 -18.5 45q0 33 22 54.5t52 21.5q28 0 47 -17t19 -45q0 -33 -22.5 -54.5t-52.5 -21.5q-28 0 -46.5 17zM583.5 779q-18.5 17 -18.5 45q0 34 21.5 55t52.5 21q28 0 46.5 -17t18.5 -45q0 -33 -22 -54.5t-52 -21.5
q-28 0 -46.5 17z" />
    <glyph glyph-name="multiply" unicode="&#xd7;" horiz-adv-x="599" 
d="M402 346l107 -125l-92 -84l-108 126l-142 -126l-78 91l141 126l-107 125l92 84l108 -126l142 126l78 -91z" />
    <glyph glyph-name="Oslash" unicode="&#xd8;" horiz-adv-x="844" 
d="M210 26q-77 38 -118 107t-41 159q0 119 54.5 214.5t153 150.5t225.5 55q105 0 182 -38t118 -107t41 -159q0 -119 -54.5 -214.5t-153 -150.5t-225.5 -55q-105 0 -182 38zM541 163q58 37 89 99t31 137q0 80 -50 127.5t-141 47.5q-77 0 -135 -37t-89 -99t-31 -137
q0 -80 50 -127.5t141 -47.5q77 0 135 37zM766 770h108l-764 -840h-109z" />
    <glyph glyph-name="Ugrave" unicode="&#xd9;" horiz-adv-x="788" 
d="M152 53.5q-75 65.5 -75 179.5q0 33 8 75l78 392h163l-78 -389q-6 -33 -6 -59q0 -63 34.5 -94.5t100.5 -31.5q74 0 118 44t64 141l78 389h159l-79 -399q-64 -313 -358 -313q-132 0 -207 65.5zM309 901h167l106 -144h-121z" />
    <glyph glyph-name="Uacute" unicode="&#xda;" horiz-adv-x="788" 
d="M152 53.5q-75 65.5 -75 179.5q0 33 8 75l78 392h163l-78 -389q-6 -33 -6 -59q0 -63 34.5 -94.5t100.5 -31.5q74 0 118 44t64 141l78 389h159l-79 -399q-64 -313 -358 -313q-132 0 -207 65.5zM549 901h172l-196 -144h-126z" />
    <glyph glyph-name="Ucircumflex" unicode="&#xdb;" horiz-adv-x="788" 
d="M152 53.5q-75 65.5 -75 179.5q0 33 8 75l78 392h163l-78 -389q-6 -33 -6 -59q0 -63 34.5 -94.5t100.5 -31.5q74 0 118 44t64 141l78 389h159l-79 -399q-64 -313 -358 -313q-132 0 -207 65.5zM582 757l-77 75l-97 -75h-117l152 144h137l113 -144h-111z" />
    <glyph glyph-name="Udieresis" unicode="&#xdc;" horiz-adv-x="788" 
d="M152 53.5q-75 65.5 -75 179.5q0 33 8 75l78 392h163l-78 -389q-6 -33 -6 -59q0 -63 34.5 -94.5t100.5 -31.5q74 0 118 44t64 141l78 389h159l-79 -399q-64 -313 -358 -313q-132 0 -207 65.5zM353.5 779q-18.5 17 -18.5 45q0 33 22 54.5t52 21.5q28 0 47 -17t19 -45
q0 -33 -22.5 -54.5t-52.5 -21.5q-28 0 -46.5 17zM556.5 779q-18.5 17 -18.5 45q0 34 21.5 55t52.5 21q28 0 46.5 -17t18.5 -45q0 -33 -22 -54.5t-52 -21.5q-28 0 -46.5 17z" />
    <glyph glyph-name="Yacute" unicode="&#xdd;" horiz-adv-x="676" 
d="M413 243l-48 -243h-162l49 250l-180 450h162l125 -312l251 312h167zM492 901h172l-196 -144h-126z" />
    <glyph glyph-name="Thorn" unicode="&#xde;" horiz-adv-x="732" 
d="M640 566q71 -57 71 -161q0 -88 -41.5 -153t-118 -100.5t-180.5 -35.5h-156l-23 -116h-163l140 700h163l-15 -77h123q129 0 200 -57zM503 284.5q44 36.5 44 105.5q0 50 -33.5 75.5t-96.5 25.5h-127l-48 -243h136q81 0 125 36.5z" />
    <glyph glyph-name="germandbls" unicode="&#xdf;" horiz-adv-x="693" 
d="M622.5 322.5q25.5 -39.5 25.5 -92.5q0 -71 -36 -125t-99 -83.5t-143 -29.5q-39 0 -74.5 5.5t-54.5 14.5l40 121q33 -13 84 -13q58 0 92.5 27.5t34.5 76.5q0 38 -28 58t-77 20h-53l25 123q66 2 105 34.5t39 87.5q0 35 -23.5 55.5t-66.5 20.5q-55 0 -90.5 -30t-47.5 -90
l-101 -503h-156l98 490q26 131 107.5 195.5t202.5 64.5q104 0 166 -50t62 -135q0 -57 -27 -104.5t-77 -77.5q47 -21 72.5 -60.5z" />
    <glyph glyph-name="agrave" unicode="&#xe0;" horiz-adv-x="690" 
d="M672 538l-107 -538h-148l10 53q-67 -61 -165 -61q-63 0 -116 29t-84.5 83.5t-31.5 128.5q0 89 39.5 160.5t107.5 112t150 40.5q124 0 175 -81l14 73h156zM392 143.5q36 22.5 56 62.5t20 92q0 55 -32.5 87t-90.5 32q-46 0 -82 -22.5t-56 -62.5t-20 -92q0 -55 32.5 -87
t90.5 -32q46 0 82 22.5zM234 751h167l106 -144h-121z" />
    <glyph glyph-name="aacute" unicode="&#xe1;" horiz-adv-x="690" 
d="M672 538l-107 -538h-148l10 53q-67 -61 -165 -61q-63 0 -116 29t-84.5 83.5t-31.5 128.5q0 89 39.5 160.5t107.5 112t150 40.5q124 0 175 -81l14 73h156zM392 143.5q36 22.5 56 62.5t20 92q0 55 -32.5 87t-90.5 32q-46 0 -82 -22.5t-56 -62.5t-20 -92q0 -55 32.5 -87
t90.5 -32q46 0 82 22.5zM474 751h172l-196 -144h-126z" />
    <glyph glyph-name="acircumflex" unicode="&#xe2;" horiz-adv-x="690" 
d="M672 538l-107 -538h-148l10 53q-67 -61 -165 -61q-63 0 -116 29t-84.5 83.5t-31.5 128.5q0 89 39.5 160.5t107.5 112t150 40.5q124 0 175 -81l14 73h156zM392 143.5q36 22.5 56 62.5t20 92q0 55 -32.5 87t-90.5 32q-46 0 -82 -22.5t-56 -62.5t-20 -92q0 -55 32.5 -87
t90.5 -32q46 0 82 22.5zM507 607l-77 75l-97 -75h-117l152 144h137l113 -144h-111z" />
    <glyph glyph-name="atilde" unicode="&#xe3;" horiz-adv-x="690" 
d="M672 538l-107 -538h-148l10 53q-67 -61 -165 -61q-63 0 -116 29t-84.5 83.5t-31.5 128.5q0 89 39.5 160.5t107.5 112t150 40.5q124 0 175 -81l14 73h156zM392 143.5q36 22.5 56 62.5t20 92q0 55 -32.5 87t-90.5 32q-46 0 -82 -22.5t-56 -62.5t-20 -92q0 -55 32.5 -87
t90.5 -32q46 0 82 22.5zM454.5 614q-19.5 10 -42.5 28q-19 14 -29 19.5t-22 5.5q-20 0 -34 -15t-19 -41h-79q11 71 46 108.5t87 37.5q26 0 45.5 -10t42.5 -28q18 -14 28.5 -20t22.5 -6q21 0 34.5 14.5t18.5 39.5h79q-11 -68 -45.5 -105.5t-86.5 -37.5q-27 0 -46.5 10z" />
    <glyph glyph-name="adieresis" unicode="&#xe4;" horiz-adv-x="690" 
d="M672 538l-107 -538h-148l10 53q-67 -61 -165 -61q-63 0 -116 29t-84.5 83.5t-31.5 128.5q0 89 39.5 160.5t107.5 112t150 40.5q124 0 175 -81l14 73h156zM392 143.5q36 22.5 56 62.5t20 92q0 55 -32.5 87t-90.5 32q-46 0 -82 -22.5t-56 -62.5t-20 -92q0 -55 32.5 -87
t90.5 -32q46 0 82 22.5zM278.5 629q-18.5 17 -18.5 45q0 33 22 54.5t52 21.5q28 0 47 -17t19 -45q0 -33 -22.5 -54.5t-52.5 -21.5q-28 0 -46.5 17zM481.5 629q-18.5 17 -18.5 45q0 34 21.5 55t52.5 21q28 0 46.5 -17t18.5 -45q0 -33 -22 -54.5t-52 -21.5q-28 0 -46.5 17z
" />
    <glyph glyph-name="aring" unicode="&#xe5;" horiz-adv-x="690" 
d="M672 538l-107 -538h-148l10 53q-67 -61 -165 -61q-63 0 -116 29t-84.5 83.5t-31.5 128.5q0 89 39.5 160.5t107.5 112t150 40.5q124 0 175 -81l14 73h156zM392 143.5q36 22.5 56 62.5t20 92q0 55 -32.5 87t-90.5 32q-46 0 -82 -22.5t-56 -62.5t-20 -92q0 -55 32.5 -87
t90.5 -32q46 0 82 22.5zM349 627q-36 35 -36 86q0 50 36 85.5t88 35.5q53 0 89 -35t36 -86t-36 -86t-89 -35q-52 0 -88 35zM480.5 669.5q17.5 17.5 17.5 43.5t-17.5 43.5t-43.5 17.5q-25 0 -42.5 -17.5t-17.5 -43.5t17 -43.5t43 -17.5t43.5 17.5z" />
    <glyph glyph-name="ae" unicode="&#xe6;" horiz-adv-x="995" 
d="M960 226h-417q4 -56 38.5 -82.5t101.5 -26.5q90 0 144 50l68 -103q-47 -36 -105.5 -54t-122.5 -18q-68 0 -125.5 23.5t-92.5 71.5q-39 -51 -94 -73t-126 -22q-99 0 -156 42.5t-57 111.5q0 80 63.5 125.5t182.5 45.5h138q2 16 2 22q0 40 -28.5 61t-83.5 21
q-42 0 -83.5 -11.5t-72.5 -31.5l-41 111q44 27 105 42t119 15q141 0 195 -74q80 74 198 74q78 0 137 -29t91 -83t32 -125q0 -40 -10 -83zM609 399q-38 -30 -55 -82h269q1 52 -32.5 82t-88.5 30t-93 -30zM333 122.5q32 25.5 43 78.5l5 25h-116q-46 0 -71.5 -18.5t-25.5 -50.5
q0 -28 21.5 -44t63.5 -16q48 0 80 25.5z" />
    <glyph glyph-name="ccedilla" unicode="&#xe7;" horiz-adv-x="591" 
d="M158 22q-62 30 -95.5 84.5t-33.5 126.5q0 89 42 160t117 112t169 41q86 0 148.5 -35.5t93.5 -100.5l-132 -66q-35 73 -120 73q-46 0 -82.5 -22.5t-57 -62.5t-20.5 -91q0 -55 33 -87.5t92 -32.5q86 0 132 72l115 -72q-39 -61 -106.5 -95t-149.5 -34q-83 0 -145 30z
M116 -211l34 67q30 -15 67 -15q27 0 40.5 9t14.5 24q3 28 -43 28h-35l48 106h83l-25 -58q33 -4 51.5 -23.5t18.5 -45.5q0 -53 -43.5 -83t-116.5 -30q-55 0 -94 21z" />
    <glyph glyph-name="egrave" unicode="&#xe8;" horiz-adv-x="628" 
d="M594 227h-412q8 -110 139 -110q41 0 78.5 13t65.5 37l65 -103q-45 -36 -103 -54t-122 -18q-83 0 -145.5 29.5t-96 84.5t-33.5 127q0 89 40.5 160.5t112.5 112t164 40.5q78 0 135.5 -29t89 -83t31.5 -125q0 -37 -9 -82zM247 399.5q-38 -29.5 -54 -81.5h267
q0 52 -32.5 81.5t-87.5 29.5t-93 -29.5zM198 750h167l106 -144h-121z" />
    <glyph glyph-name="eacute" unicode="&#xe9;" horiz-adv-x="628" 
d="M594 227h-412q8 -110 139 -110q41 0 78.5 13t65.5 37l65 -103q-45 -36 -103 -54t-122 -18q-83 0 -145.5 29.5t-96 84.5t-33.5 127q0 89 40.5 160.5t112.5 112t164 40.5q78 0 135.5 -29t89 -83t31.5 -125q0 -37 -9 -82zM247 399.5q-38 -29.5 -54 -81.5h267
q0 52 -32.5 81.5t-87.5 29.5t-93 -29.5zM438 750h172l-196 -144h-126z" />
    <glyph glyph-name="ecircumflex" unicode="&#xea;" horiz-adv-x="628" 
d="M594 227h-412q8 -110 139 -110q41 0 78.5 13t65.5 37l65 -103q-45 -36 -103 -54t-122 -18q-83 0 -145.5 29.5t-96 84.5t-33.5 127q0 89 40.5 160.5t112.5 112t164 40.5q78 0 135.5 -29t89 -83t31.5 -125q0 -37 -9 -82zM247 399.5q-38 -29.5 -54 -81.5h267
q0 52 -32.5 81.5t-87.5 29.5t-93 -29.5zM471 606l-77 75l-97 -75h-117l152 144h137l113 -144h-111z" />
    <glyph glyph-name="edieresis" unicode="&#xeb;" horiz-adv-x="628" 
d="M594 227h-412q8 -110 139 -110q41 0 78.5 13t65.5 37l65 -103q-45 -36 -103 -54t-122 -18q-83 0 -145.5 29.5t-96 84.5t-33.5 127q0 89 40.5 160.5t112.5 112t164 40.5q78 0 135.5 -29t89 -83t31.5 -125q0 -37 -9 -82zM247 399.5q-38 -29.5 -54 -81.5h267
q0 52 -32.5 81.5t-87.5 29.5t-93 -29.5zM242.5 628q-18.5 17 -18.5 45q0 33 22 54.5t52 21.5q28 0 47 -17t19 -45q0 -33 -22.5 -54.5t-52.5 -21.5q-28 0 -46.5 17zM445.5 628q-18.5 17 -18.5 45q0 34 21.5 55t52.5 21q28 0 46.5 -17t18.5 -45q0 -33 -22 -54.5t-52 -21.5
q-28 0 -46.5 17z" />
    <glyph glyph-name="igrave" unicode="&#xec;" horiz-adv-x="300" 
d="M126 538h155l-107 -538h-155zM35 751h167l106 -144h-121z" />
    <glyph glyph-name="iacute" unicode="&#xed;" horiz-adv-x="300" 
d="M126 538h155l-107 -538h-155zM275 751h172l-196 -144h-126z" />
    <glyph glyph-name="icircumflex" unicode="&#xee;" horiz-adv-x="300" 
d="M126 538h155l-107 -538h-155zM286 607l-56 70l-74 -70h-114l129 144h134l89 -144h-108z" />
    <glyph glyph-name="idieresis" unicode="&#xef;" horiz-adv-x="300" 
d="M126 538h155l-107 -538h-155zM102 629.5q-18 17.5 -18 44.5q0 33 20 54.5t51 21.5q26 0 43 -18t17 -46q0 -32 -20 -53t-49 -21q-26 0 -44 17.5zM266.5 629.5q-17.5 17.5 -17.5 44.5q0 33 20 54.5t50 21.5q26 0 43 -17.5t17 -44.5q0 -33 -19.5 -54.5t-49.5 -21.5
q-26 0 -43.5 17.5z" />
    <glyph glyph-name="eth" unicode="&#xf0;" horiz-adv-x="657" 
d="M602 610q45 -71 45 -169q0 -124 -45.5 -227.5t-131.5 -164.5t-200 -61q-73 0 -129 26t-87 73.5t-31 107.5q0 73 36.5 130t101.5 89t147 32q57 0 101.5 -19t70.5 -54q3 15 5 49q1 8 1 23q0 70 -31 111l-251 -91l-28 79l190 70q-33 7 -65 7q-72 0 -132 -19l5 120
q70 19 152 19q132 0 214 -64l109 40l28 -80zM391 143q41 34 41 86q0 45 -29.5 71t-81.5 26q-64 0 -103 -33.5t-39 -86.5q0 -45 29.5 -71t81.5 -26q60 0 101 34z" />
    <glyph glyph-name="ntilde" unicode="&#xf1;" horiz-adv-x="691" 
d="M582 498.5q53 -47.5 53 -135.5q0 -33 -7 -65l-60 -298h-156l58 288q4 17 4 37q0 42 -23 64t-69 22q-60 0 -99.5 -34.5t-53.5 -103.5l-54 -273h-156l107 538h148l-12 -58q72 66 177 66q90 0 143 -47.5zM453.5 614q-19.5 10 -42.5 28q-19 14 -29 19.5t-22 5.5
q-20 0 -34 -15t-19 -41h-79q11 71 46 108.5t87 37.5q26 0 45.5 -10t42.5 -28q18 -14 28.5 -20t22.5 -6q21 0 34.5 14.5t18.5 39.5h79q-11 -68 -45.5 -105.5t-86.5 -37.5q-27 0 -46.5 10z" />
    <glyph glyph-name="ograve" unicode="&#xf2;" horiz-adv-x="654" 
d="M157.5 22q-61.5 30 -95 84.5t-33.5 126.5q0 89 42 160t116 112t167 41q82 0 143 -30t94.5 -84.5t33.5 -126.5q0 -89 -41.5 -160t-116 -112t-167.5 -41q-81 0 -142.5 30zM391 143.5q36 22.5 56 62.5t20 92q0 55 -32 87t-90 32q-46 0 -82 -22.5t-56 -62.5t-20 -92
q0 -55 32.5 -87t90.5 -32q45 0 81 22.5zM209 751h167l106 -144h-121z" />
    <glyph glyph-name="oacute" unicode="&#xf3;" horiz-adv-x="654" 
d="M157.5 22q-61.5 30 -95 84.5t-33.5 126.5q0 89 42 160t116 112t167 41q82 0 143 -30t94.5 -84.5t33.5 -126.5q0 -89 -41.5 -160t-116 -112t-167.5 -41q-81 0 -142.5 30zM391 143.5q36 22.5 56 62.5t20 92q0 55 -32 87t-90 32q-46 0 -82 -22.5t-56 -62.5t-20 -92
q0 -55 32.5 -87t90.5 -32q45 0 81 22.5zM449 751h172l-196 -144h-126z" />
    <glyph glyph-name="ocircumflex" unicode="&#xf4;" horiz-adv-x="654" 
d="M157.5 22q-61.5 30 -95 84.5t-33.5 126.5q0 89 42 160t116 112t167 41q82 0 143 -30t94.5 -84.5t33.5 -126.5q0 -89 -41.5 -160t-116 -112t-167.5 -41q-81 0 -142.5 30zM391 143.5q36 22.5 56 62.5t20 92q0 55 -32 87t-90 32q-46 0 -82 -22.5t-56 -62.5t-20 -92
q0 -55 32.5 -87t90.5 -32q45 0 81 22.5zM482 607l-77 75l-97 -75h-117l152 144h137l113 -144h-111z" />
    <glyph glyph-name="otilde" unicode="&#xf5;" horiz-adv-x="654" 
d="M157.5 22q-61.5 30 -95 84.5t-33.5 126.5q0 89 42 160t116 112t167 41q82 0 143 -30t94.5 -84.5t33.5 -126.5q0 -89 -41.5 -160t-116 -112t-167.5 -41q-81 0 -142.5 30zM391 143.5q36 22.5 56 62.5t20 92q0 55 -32 87t-90 32q-46 0 -82 -22.5t-56 -62.5t-20 -92
q0 -55 32.5 -87t90.5 -32q45 0 81 22.5zM429.5 614q-19.5 10 -42.5 28q-19 14 -29 19.5t-22 5.5q-20 0 -34 -15t-19 -41h-79q11 71 46 108.5t87 37.5q26 0 45.5 -10t42.5 -28q18 -14 28.5 -20t22.5 -6q21 0 34.5 14.5t18.5 39.5h79q-11 -68 -45.5 -105.5t-86.5 -37.5
q-27 0 -46.5 10z" />
    <glyph glyph-name="odieresis" unicode="&#xf6;" horiz-adv-x="654" 
d="M157.5 22q-61.5 30 -95 84.5t-33.5 126.5q0 89 42 160t116 112t167 41q82 0 143 -30t94.5 -84.5t33.5 -126.5q0 -89 -41.5 -160t-116 -112t-167.5 -41q-81 0 -142.5 30zM391 143.5q36 22.5 56 62.5t20 92q0 55 -32 87t-90 32q-46 0 -82 -22.5t-56 -62.5t-20 -92
q0 -55 32.5 -87t90.5 -32q45 0 81 22.5zM253.5 629q-18.5 17 -18.5 45q0 33 22 54.5t52 21.5q28 0 47 -17t19 -45q0 -33 -22.5 -54.5t-52.5 -21.5q-28 0 -46.5 17zM456.5 629q-18.5 17 -18.5 45q0 34 21.5 55t52.5 21q28 0 46.5 -17t18.5 -45q0 -33 -22 -54.5t-52 -21.5
q-28 0 -46.5 17z" />
    <glyph glyph-name="divide" unicode="&#xf7;" horiz-adv-x="599" 
d="M296 496.5q-22 21.5 -22 54.5q0 40 25.5 65t63.5 25q34 0 55.5 -20.5t21.5 -53.5q0 -39 -26 -65.5t-63 -26.5q-33 0 -55 21.5zM90 411h476l-24 -122h-476zM213 80.5q-22 21.5 -22 54.5q0 39 26 64.5t63 25.5q33 0 55 -21t22 -54q0 -39 -26 -65t-63 -26q-33 0 -55 21.5z
" />
    <glyph glyph-name="oslash" unicode="&#xf8;" horiz-adv-x="654" 
d="M157.5 22q-61.5 30 -95 84.5t-33.5 126.5q0 89 42 160t116 112t167 41q82 0 143 -30t94.5 -84.5t33.5 -126.5q0 -89 -41.5 -160t-116 -112t-167.5 -41q-81 0 -142.5 30zM391 143.5q36 22.5 56 62.5t20 92q0 55 -32 87t-90 32q-46 0 -82 -22.5t-56 -62.5t-20 -92
q0 -55 32.5 -87t90.5 -32q45 0 81 22.5zM569 605h82l-571 -675h-82z" />
    <glyph glyph-name="ugrave" unicode="&#xf9;" horiz-adv-x="687" 
d="M668 538l-107 -538h-148l11 58q-35 -33 -80 -49.5t-95 -16.5q-88 0 -140.5 48t-52.5 135q0 33 7 65l59 298h156l-57 -288q-4 -19 -4 -39q0 -84 90 -84q59 0 97.5 34.5t52.5 103.5l55 273h156zM226 751h167l106 -144h-121z" />
    <glyph glyph-name="uacute" unicode="&#xfa;" horiz-adv-x="687" 
d="M668 538l-107 -538h-148l11 58q-35 -33 -80 -49.5t-95 -16.5q-88 0 -140.5 48t-52.5 135q0 33 7 65l59 298h156l-57 -288q-4 -19 -4 -39q0 -84 90 -84q59 0 97.5 34.5t52.5 103.5l55 273h156zM466 751h172l-196 -144h-126z" />
    <glyph glyph-name="ucircumflex" unicode="&#xfb;" horiz-adv-x="687" 
d="M668 538l-107 -538h-148l11 58q-35 -33 -80 -49.5t-95 -16.5q-88 0 -140.5 48t-52.5 135q0 33 7 65l59 298h156l-57 -288q-4 -19 -4 -39q0 -84 90 -84q59 0 97.5 34.5t52.5 103.5l55 273h156zM499 607l-77 75l-97 -75h-117l152 144h137l113 -144h-111z" />
    <glyph glyph-name="udieresis" unicode="&#xfc;" horiz-adv-x="687" 
d="M668 538l-107 -538h-148l11 58q-35 -33 -80 -49.5t-95 -16.5q-88 0 -140.5 48t-52.5 135q0 33 7 65l59 298h156l-57 -288q-4 -19 -4 -39q0 -84 90 -84q59 0 97.5 34.5t52.5 103.5l55 273h156zM270.5 629q-18.5 17 -18.5 45q0 33 22 54.5t52 21.5q28 0 47 -17t19 -45
q0 -33 -22.5 -54.5t-52.5 -21.5q-28 0 -46.5 17zM473.5 629q-18.5 17 -18.5 45q0 34 21.5 55t52.5 21q28 0 46.5 -17t18.5 -45q0 -33 -22 -54.5t-52 -21.5q-28 0 -46.5 17z" />
    <glyph glyph-name="yacute" unicode="&#xfd;" horiz-adv-x="598" 
d="M660 538l-358 -574q-58 -94 -112.5 -130t-133.5 -36q-42 0 -82.5 13t-63.5 34l72 112q36 -33 86 -33q30 0 52 15t45 51l5 9l-124 539h156l80 -366l224 366h154zM412 751h172l-196 -144h-126z" />
    <glyph glyph-name="thorn" unicode="&#xfe;" horiz-adv-x="690" 
d="M544.5 517q53.5 -29 85 -83.5t31.5 -128.5q0 -89 -39.5 -160.5t-107.5 -112t-151 -40.5q-125 0 -174 81l-53 -267h-156l187 936h156l-50 -249q64 53 155 53q63 0 116.5 -29zM427 143.5q36 22.5 56 62.5t20 92q0 55 -32.5 87t-90.5 32q-45 0 -81 -22.5t-56 -62.5t-20 -92
q0 -55 32 -87t90 -32q46 0 82 22.5z" />
    <glyph glyph-name="ydieresis" unicode="&#xff;" horiz-adv-x="598" 
d="M660 538l-358 -574q-58 -94 -112.5 -130t-133.5 -36q-42 0 -82.5 13t-63.5 34l72 112q36 -33 86 -33q30 0 52 15t45 51l5 9l-124 539h156l80 -366l224 366h154zM216.5 629q-18.5 17 -18.5 45q0 33 22 54.5t52 21.5q28 0 47 -17t19 -45q0 -33 -22.5 -54.5t-52.5 -21.5
q-28 0 -46.5 17zM419.5 629q-18.5 17 -18.5 45q0 34 21.5 55t52.5 21q28 0 46.5 -17t18.5 -45q0 -33 -22 -54.5t-52 -21.5q-28 0 -46.5 17z" />
    <glyph glyph-name="Amacron" unicode="&#x100;" horiz-adv-x="766" 
d="M527 150h-326l-91 -150h-173l453 700h160l172 -700h-162zM500 273l-59 270l-165 -270h224zM318 873h369l-17 -88h-369z" />
    <glyph glyph-name="amacron" unicode="&#x101;" horiz-adv-x="690" 
d="M672 538l-107 -538h-148l10 53q-67 -61 -165 -61q-63 0 -116 29t-84.5 83.5t-31.5 128.5q0 89 39.5 160.5t107.5 112t150 40.5q124 0 175 -81l14 73h156zM392 143.5q36 22.5 56 62.5t20 92q0 55 -32.5 87t-90.5 32q-46 0 -82 -22.5t-56 -62.5t-20 -92q0 -55 32.5 -87
t90.5 -32q46 0 82 22.5zM255 723h369l-17 -88h-369z" />
    <glyph glyph-name="Abreve" unicode="&#x102;" horiz-adv-x="766" 
d="M527 150h-326l-91 -150h-173l453 700h160l172 -700h-162zM500 273l-59 270l-165 -270h224zM370 786.5q-47 37.5 -47 99.5q0 10 1 15h95q-1 -32 20.5 -51.5t58.5 -19.5t62 19.5t31 51.5h101q-13 -70 -68 -111t-135 -41q-72 0 -119 37.5z" />
    <glyph glyph-name="abreve" unicode="&#x103;" horiz-adv-x="690" 
d="M672 538l-107 -538h-148l10 53q-67 -61 -165 -61q-63 0 -116 29t-84.5 83.5t-31.5 128.5q0 89 39.5 160.5t107.5 112t150 40.5q124 0 175 -81l14 73h156zM392 143.5q36 22.5 56 62.5t20 92q0 55 -32.5 87t-90.5 32q-46 0 -82 -22.5t-56 -62.5t-20 -92q0 -55 32.5 -87
t90.5 -32q46 0 82 22.5zM307 636.5q-47 37.5 -47 99.5q0 10 1 15h95q-1 -32 20.5 -51.5t58.5 -19.5t62 19.5t31 51.5h101q-13 -70 -68 -111t-135 -41q-72 0 -119 37.5z" />
    <glyph glyph-name="Aogonek" unicode="&#x104;" horiz-adv-x="766" 
d="M527 150h-326l-91 -150h-173l453 700h160l172 -700h-162zM500 273l-59 270l-165 -270h224zM515 -205.5q-34 26.5 -34 72.5q0 57 48 101t136 75l57 -43q-138 -49 -138 -111q0 -20 13 -31t35 -11q34 0 64 15l11 -71q-48 -23 -101 -23q-57 0 -91 26.5z" />
    <glyph glyph-name="aogonek" unicode="&#x105;" horiz-adv-x="690" 
d="M672 538l-107 -538h-148l10 53q-67 -61 -165 -61q-63 0 -116 29t-84.5 83.5t-31.5 128.5q0 89 39.5 160.5t107.5 112t150 40.5q124 0 175 -81l14 73h156zM392 143.5q36 22.5 56 62.5t20 92q0 55 -32.5 87t-90.5 32q-46 0 -82 -22.5t-56 -62.5t-20 -92q0 -55 32.5 -87
t90.5 -32q46 0 82 22.5zM358 -205.5q-34 26.5 -34 72.5q0 57 48 101t136 75l57 -43q-138 -49 -138 -111q0 -20 13 -31t35 -11q34 0 64 15l11 -71q-48 -23 -101 -23q-57 0 -91 26.5z" />
    <glyph glyph-name="Cacute" unicode="&#x106;" horiz-adv-x="733" 
d="M213.5 26q-78.5 38 -120.5 107t-42 159q0 119 54.5 214.5t153.5 150.5t227 55q94 0 166 -32t109 -92l-117 -96q-56 82 -169 82q-77 0 -136 -36t-91.5 -98t-32.5 -138q0 -81 51.5 -128.5t144.5 -47.5q111 0 186 81l96 -98q-104 -121 -296 -121q-105 0 -183.5 38zM568 901
h172l-196 -144h-126z" />
    <glyph glyph-name="cacute" unicode="&#x107;" horiz-adv-x="591" 
d="M158 22q-62 30 -95.5 84.5t-33.5 126.5q0 89 42 160t117 112t169 41q86 0 148.5 -35.5t93.5 -100.5l-132 -66q-35 73 -120 73q-46 0 -82.5 -22.5t-57 -62.5t-20.5 -91q0 -55 33 -87.5t92 -32.5q86 0 132 72l115 -72q-39 -61 -106.5 -95t-149.5 -34q-83 0 -145 30z
M436 751h172l-196 -144h-126z" />
    <glyph glyph-name="Ccircumflex" unicode="&#x108;" horiz-adv-x="733" 
d="M213.5 26q-78.5 38 -120.5 107t-42 159q0 119 54.5 214.5t153.5 150.5t227 55q94 0 166 -32t109 -92l-117 -96q-56 82 -169 82q-77 0 -136 -36t-91.5 -98t-32.5 -138q0 -81 51.5 -128.5t144.5 -47.5q111 0 186 81l96 -98q-104 -121 -296 -121q-105 0 -183.5 38zM601 757
l-77 75l-97 -75h-117l152 144h137l113 -144h-111z" />
    <glyph glyph-name="ccircumflex" unicode="&#x109;" horiz-adv-x="591" 
d="M158 22q-62 30 -95.5 84.5t-33.5 126.5q0 89 42 160t117 112t169 41q86 0 148.5 -35.5t93.5 -100.5l-132 -66q-35 73 -120 73q-46 0 -82.5 -22.5t-57 -62.5t-20.5 -91q0 -55 33 -87.5t92 -32.5q86 0 132 72l115 -72q-39 -61 -106.5 -95t-149.5 -34q-83 0 -145 30z
M469 607l-77 75l-97 -75h-117l152 144h137l113 -144h-111z" />
    <glyph glyph-name="Cdotaccent" unicode="&#x10a;" horiz-adv-x="733" 
d="M213.5 26q-78.5 38 -120.5 107t-42 159q0 119 54.5 214.5t153.5 150.5t227 55q94 0 166 -32t109 -92l-117 -96q-56 82 -169 82q-77 0 -136 -36t-91.5 -98t-32.5 -138q0 -81 51.5 -128.5t144.5 -47.5q111 0 186 81l96 -98q-104 -121 -296 -121q-105 0 -183.5 38zM466 783
q-22 21 -22 53q0 42 26 68.5t65 26.5q35 0 56.5 -21t21.5 -54q0 -41 -26 -67.5t-64 -26.5q-35 0 -57 21z" />
    <glyph glyph-name="cdotaccent" unicode="&#x10b;" horiz-adv-x="591" 
d="M158 22q-62 30 -95.5 84.5t-33.5 126.5q0 89 42 160t117 112t169 41q86 0 148.5 -35.5t93.5 -100.5l-132 -66q-35 73 -120 73q-46 0 -82.5 -22.5t-57 -62.5t-20.5 -91q0 -55 33 -87.5t92 -32.5q86 0 132 72l115 -72q-39 -61 -106.5 -95t-149.5 -34q-83 0 -145 30z
M334 633q-22 21 -22 53q0 42 26 68.5t65 26.5q35 0 56.5 -21t21.5 -54q0 -41 -26 -67.5t-64 -26.5q-35 0 -57 21z" />
    <glyph glyph-name="Ccaron" unicode="&#x10c;" horiz-adv-x="733" 
d="M213.5 26q-78.5 38 -120.5 107t-42 159q0 119 54.5 214.5t153.5 150.5t227 55q94 0 166 -32t109 -92l-117 -96q-56 82 -169 82q-77 0 -136 -36t-91.5 -98t-32.5 -138q0 -81 51.5 -128.5t144.5 -47.5q111 0 186 81l96 -98q-104 -121 -296 -121q-105 0 -183.5 38zM734 901
l-151 -144h-138l-112 144h111l77 -75l97 75h116z" />
    <glyph glyph-name="ccaron" unicode="&#x10d;" horiz-adv-x="591" 
d="M158 22q-62 30 -95.5 84.5t-33.5 126.5q0 89 42 160t117 112t169 41q86 0 148.5 -35.5t93.5 -100.5l-132 -66q-35 73 -120 73q-46 0 -82.5 -22.5t-57 -62.5t-20.5 -91q0 -55 33 -87.5t92 -32.5q86 0 132 72l115 -72q-39 -61 -106.5 -95t-149.5 -34q-83 0 -145 30z
M602 751l-151 -144h-138l-112 144h111l77 -75l97 75h116z" />
    <glyph glyph-name="Dcaron" unicode="&#x10e;" horiz-adv-x="826" 
d="M169 700h293q107 0 184.5 -35.5t119 -101.5t41.5 -155q0 -122 -55 -214.5t-153.5 -143t-227.5 -50.5h-342zM376 133q82 0 142.5 34.5t92.5 95t32 136.5q0 79 -51 123.5t-148 44.5h-139l-87 -434h158zM688 900l-151 -144h-138l-112 144h111l77 -75l97 75h116z" />
    <glyph glyph-name="dcaron" unicode="&#x10f;" horiz-adv-x="692" 
d="M714 742l-148 -742h-148l11 54q-68 -62 -165 -62q-63 0 -116 29t-84.5 83.5t-31.5 128.5q0 89 39.5 160.5t107.5 112t150 40.5q59 0 103.5 -20t70.5 -59l55 275h156zM394 143.5q36 22.5 56 62.5t20 92q0 55 -32.5 87t-90.5 32q-46 0 -82 -22.5t-56 -62.5t-20 -92
q0 -55 32.5 -87t90.5 -32q46 0 82 22.5zM804 783h117l-61 -201h-96z" />
    <glyph glyph-name="Dcroat" unicode="&#x110;" horiz-adv-x="839" 
d="M182 700h293q107 0 184.5 -35.5t119 -101.5t41.5 -155q0 -122 -55 -214.5t-153.5 -143t-227.5 -50.5h-342zM389 133q82 0 142.5 34.5t92.5 95t32 136.5q0 79 -51 123.5t-148 44.5h-139l-87 -434h158zM29 410h432l-21 -108h-433z" />
    <glyph glyph-name="dcroat" unicode="&#x111;" horiz-adv-x="692" 
d="M714 742l-148 -742h-148l11 54q-68 -62 -165 -62q-63 0 -116 29t-84.5 83.5t-31.5 128.5q0 89 39.5 160.5t107.5 112t150 40.5q59 0 103.5 -20t70.5 -59l55 275h156zM394 143.5q36 22.5 56 62.5t20 92q0 55 -32.5 87t-90.5 32q-46 0 -82 -22.5t-56 -62.5t-20 -92
q0 -55 32.5 -87t90.5 -32q46 0 82 22.5zM363 683h411l-17 -90h-412z" />
    <glyph glyph-name="Emacron" unicode="&#x112;" horiz-adv-x="671" 
d="M304 570l-30 -152h325l-25 -126h-326l-32 -162h382l-27 -130h-542l140 700h529l-27 -130h-367zM283 873h369l-17 -88h-369z" />
    <glyph glyph-name="emacron" unicode="&#x113;" horiz-adv-x="628" 
d="M594 227h-412q8 -110 139 -110q41 0 78.5 13t65.5 37l65 -103q-45 -36 -103 -54t-122 -18q-83 0 -145.5 29.5t-96 84.5t-33.5 127q0 89 40.5 160.5t112.5 112t164 40.5q78 0 135.5 -29t89 -83t31.5 -125q0 -37 -9 -82zM247 399.5q-38 -29.5 -54 -81.5h267
q0 52 -32.5 81.5t-87.5 29.5t-93 -29.5zM219 722h369l-17 -88h-369z" />
    <glyph glyph-name="Ebreve" unicode="&#x114;" horiz-adv-x="671" 
d="M304 570l-30 -152h325l-25 -126h-326l-32 -162h382l-27 -130h-542l140 700h529l-27 -130h-367zM335 786.5q-47 37.5 -47 99.5q0 10 1 15h95q-1 -32 20.5 -51.5t58.5 -19.5t62 19.5t31 51.5h101q-13 -70 -68 -111t-135 -41q-72 0 -119 37.5z" />
    <glyph glyph-name="ebreve" unicode="&#x115;" horiz-adv-x="628" 
d="M594 227h-412q8 -110 139 -110q41 0 78.5 13t65.5 37l65 -103q-45 -36 -103 -54t-122 -18q-83 0 -145.5 29.5t-96 84.5t-33.5 127q0 89 40.5 160.5t112.5 112t164 40.5q78 0 135.5 -29t89 -83t31.5 -125q0 -37 -9 -82zM247 399.5q-38 -29.5 -54 -81.5h267
q0 52 -32.5 81.5t-87.5 29.5t-93 -29.5zM271 635.5q-47 37.5 -47 99.5q0 10 1 15h95q-1 -32 20.5 -51.5t58.5 -19.5t62 19.5t31 51.5h101q-13 -70 -68 -111t-135 -41q-72 0 -119 37.5z" />
    <glyph glyph-name="Edotaccent" unicode="&#x116;" horiz-adv-x="671" 
d="M304 570l-30 -152h325l-25 -126h-326l-32 -162h382l-27 -130h-542l140 700h529l-27 -130h-367zM400 783q-22 21 -22 53q0 42 26 68.5t65 26.5q35 0 56.5 -21t21.5 -54q0 -41 -26 -67.5t-64 -26.5q-35 0 -57 21z" />
    <glyph glyph-name="edotaccent" unicode="&#x117;" horiz-adv-x="628" 
d="M594 227h-412q8 -110 139 -110q41 0 78.5 13t65.5 37l65 -103q-45 -36 -103 -54t-122 -18q-83 0 -145.5 29.5t-96 84.5t-33.5 127q0 89 40.5 160.5t112.5 112t164 40.5q78 0 135.5 -29t89 -83t31.5 -125q0 -37 -9 -82zM247 399.5q-38 -29.5 -54 -81.5h267
q0 52 -32.5 81.5t-87.5 29.5t-93 -29.5zM336 632q-22 21 -22 53q0 42 26 68.5t65 26.5q35 0 56.5 -21t21.5 -54q0 -41 -26 -67.5t-64 -26.5q-35 0 -57 21z" />
    <glyph glyph-name="Eogonek" unicode="&#x118;" horiz-adv-x="671" 
d="M304 570l-30 -152h325l-25 -126h-326l-32 -162h382l-27 -130h-542l140 700h529l-27 -130h-367zM364 -205.5q-34 26.5 -34 72.5q0 57 48 101t136 75l57 -43q-138 -49 -138 -111q0 -20 13 -31t35 -11q34 0 64 15l11 -71q-48 -23 -101 -23q-57 0 -91 26.5z" />
    <glyph glyph-name="eogonek" unicode="&#x119;" horiz-adv-x="628" 
d="M594 227h-412q8 -110 140 -110q42 0 79 12.5t64 37.5l65 -103q-12 -11 -29.5 -21t-22.5 -13q-71 -38 -105.5 -72.5t-34.5 -67.5q0 -21 13 -32t35 -11q33 0 61 15l11 -71q-46 -23 -98 -23q-55 0 -88.5 26.5t-33.5 72.5q0 35 19 67.5t53 57.5h-5q-83 0 -145.5 29.5
t-96 84.5t-33.5 127q0 89 40.5 160.5t112.5 112t164 40.5q78 0 135.5 -29t89 -83t31.5 -125q0 -37 -9 -82zM247 399.5q-38 -29.5 -54 -81.5h267q0 52 -32.5 81.5t-87.5 29.5t-93 -29.5z" />
    <glyph glyph-name="Ecaron" unicode="&#x11a;" horiz-adv-x="671" 
d="M304 570l-30 -152h325l-25 -126h-326l-32 -162h382l-27 -130h-542l140 700h529l-27 -130h-367zM668 901l-151 -144h-138l-112 144h111l77 -75l97 75h116z" />
    <glyph glyph-name="ecaron" unicode="&#x11b;" horiz-adv-x="628" 
d="M594 227h-412q8 -110 139 -110q41 0 78.5 13t65.5 37l65 -103q-45 -36 -103 -54t-122 -18q-83 0 -145.5 29.5t-96 84.5t-33.5 127q0 89 40.5 160.5t112.5 112t164 40.5q78 0 135.5 -29t89 -83t31.5 -125q0 -37 -9 -82zM247 399.5q-38 -29.5 -54 -81.5h267
q0 52 -32.5 81.5t-87.5 29.5t-93 -29.5zM604 750l-151 -144h-138l-112 144h111l77 -75l97 75h116z" />
    <glyph glyph-name="Gcircumflex" unicode="&#x11c;" horiz-adv-x="771" 
d="M575 361h148l-58 -288q-53 -41 -123 -63t-145 -22q-105 0 -183 38t-120.5 107t-42.5 159q0 119 55 215t155 150.5t230 54.5q100 0 173.5 -31t118.5 -91l-116 -94q-35 41 -79 59.5t-104 18.5q-80 0 -141 -35.5t-94.5 -97.5t-33.5 -139q0 -81 52.5 -128.5t150.5 -47.5
q62 0 116 25zM603 757l-77 75l-97 -75h-117l152 144h137l113 -144h-111z" />
    <glyph glyph-name="gcircumflex" unicode="&#x11d;" horiz-adv-x="700" 
d="M681 538l-89 -448q-30 -152 -115.5 -222t-228.5 -70q-78 0 -143.5 18t-112.5 53l74 113q32 -27 82.5 -42.5t106.5 -15.5q79 0 120 34.5t56 104.5l4 23q-65 -60 -164 -60q-67 0 -121 27.5t-85.5 78.5t-31.5 120q0 82 39 149t107.5 106t153.5 39q63 0 110.5 -23.5
t71.5 -72.5l17 88h149zM425 198q44 44 44 113q0 49 -32 77.5t-89 28.5q-69 0 -113.5 -44t-44.5 -113q0 -49 33 -77.5t90 -28.5q68 0 112 44zM499 607l-77 75l-97 -75h-117l152 144h137l113 -144h-111z" />
    <glyph glyph-name="Gbreve" unicode="&#x11e;" horiz-adv-x="771" 
d="M575 361h148l-58 -288q-53 -41 -123 -63t-145 -22q-105 0 -183 38t-120.5 107t-42.5 159q0 119 55 215t155 150.5t230 54.5q100 0 173.5 -31t118.5 -91l-116 -94q-35 41 -79 59.5t-104 18.5q-80 0 -141 -35.5t-94.5 -97.5t-33.5 -139q0 -81 52.5 -128.5t150.5 -47.5
q62 0 116 25zM403 786.5q-47 37.5 -47 99.5q0 10 1 15h95q-1 -32 20.5 -51.5t58.5 -19.5t62 19.5t31 51.5h101q-13 -70 -68 -111t-135 -41q-72 0 -119 37.5z" />
    <glyph glyph-name="gbreve" unicode="&#x11f;" horiz-adv-x="700" 
d="M681 538l-89 -448q-30 -152 -115.5 -222t-228.5 -70q-78 0 -143.5 18t-112.5 53l74 113q32 -27 82.5 -42.5t106.5 -15.5q79 0 120 34.5t56 104.5l4 23q-65 -60 -164 -60q-67 0 -121 27.5t-85.5 78.5t-31.5 120q0 82 39 149t107.5 106t153.5 39q63 0 110.5 -23.5
t71.5 -72.5l17 88h149zM425 198q44 44 44 113q0 49 -32 77.5t-89 28.5q-69 0 -113.5 -44t-44.5 -113q0 -49 33 -77.5t90 -28.5q68 0 112 44zM299 636.5q-47 37.5 -47 99.5q0 10 1 15h95q-1 -32 20.5 -51.5t58.5 -19.5t62 19.5t31 51.5h101q-13 -70 -68 -111t-135 -41
q-72 0 -119 37.5z" />
    <glyph glyph-name="Gdotaccent" unicode="&#x120;" horiz-adv-x="771" 
d="M575 361h148l-58 -288q-53 -41 -123 -63t-145 -22q-105 0 -183 38t-120.5 107t-42.5 159q0 119 55 215t155 150.5t230 54.5q100 0 173.5 -31t118.5 -91l-116 -94q-35 41 -79 59.5t-104 18.5q-80 0 -141 -35.5t-94.5 -97.5t-33.5 -139q0 -81 52.5 -128.5t150.5 -47.5
q62 0 116 25zM468 783q-22 21 -22 53q0 42 26 68.5t65 26.5q35 0 56.5 -21t21.5 -54q0 -41 -26 -67.5t-64 -26.5q-35 0 -57 21z" />
    <glyph glyph-name="gdotaccent" unicode="&#x121;" horiz-adv-x="700" 
d="M681 538l-89 -448q-30 -152 -115.5 -222t-228.5 -70q-78 0 -143.5 18t-112.5 53l74 113q32 -27 82.5 -42.5t106.5 -15.5q79 0 120 34.5t56 104.5l4 23q-65 -60 -164 -60q-67 0 -121 27.5t-85.5 78.5t-31.5 120q0 82 39 149t107.5 106t153.5 39q63 0 110.5 -23.5
t71.5 -72.5l17 88h149zM425 198q44 44 44 113q0 49 -32 77.5t-89 28.5q-69 0 -113.5 -44t-44.5 -113q0 -49 33 -77.5t90 -28.5q68 0 112 44zM364 633q-22 21 -22 53q0 42 26 68.5t65 26.5q35 0 56.5 -21t21.5 -54q0 -41 -26 -67.5t-64 -26.5q-35 0 -57 21z" />
    <glyph glyph-name="Gcommaaccent" unicode="&#x122;" horiz-adv-x="771" 
d="M575 361h148l-58 -288q-53 -41 -123 -63t-145 -22q-105 0 -183 38t-120.5 107t-42.5 159q0 119 55 215t155 150.5t230 54.5q100 0 173.5 -31t118.5 -91l-116 -94q-35 41 -79 59.5t-104 18.5q-80 0 -141 -35.5t-94.5 -97.5t-33.5 -139q0 -81 52.5 -128.5t150.5 -47.5
q62 0 116 25zM378.5 -88q17.5 -15 17.5 -38q0 -16 -6.5 -30.5t-24.5 -40.5l-49 -69h-71l41 81q-30 12 -30 44q0 30 19 49t54 19q32 0 49.5 -15z" />
    <glyph glyph-name="gcommaaccent" unicode="&#x123;" horiz-adv-x="700" 
d="M681 538l-89 -448q-30 -152 -115.5 -222t-228.5 -70q-78 0 -143.5 18t-112.5 53l74 113q32 -27 82.5 -42.5t106.5 -15.5q79 0 120 34.5t56 104.5l4 23q-65 -60 -164 -60q-67 0 -121 27.5t-85.5 78.5t-31.5 120q0 82 39 149t107.5 106t153.5 39q63 0 110.5 -23.5
t71.5 -72.5l17 88h149zM425 198q44 44 44 113q0 49 -32 77.5t-89 28.5q-69 0 -113.5 -44t-44.5 -113q0 -49 33 -77.5t90 -28.5q68 0 112 44zM499 667q0 -30 -22 -49t-63 -19q-36 0 -55.5 15t-19.5 39q0 15 7 29.5t27 40.5l64 90h84l-55 -102q33 -12 33 -44z" />
    <glyph glyph-name="Hcircumflex" unicode="&#x124;" horiz-adv-x="808" 
d="M811 700l-140 -700h-162l57 285h-317l-57 -285h-163l140 700h163l-55 -275h317l55 275h162zM591 757l-77 75l-97 -75h-117l152 144h137l113 -144h-111z" />
    <glyph glyph-name="hcircumflex" unicode="&#x125;" horiz-adv-x="691" 
d="M582 498q53 -48 53 -136q0 -32 -7 -64l-60 -298h-156l58 288q4 17 4 37q0 42 -23 64t-69 22q-60 0 -99.5 -34.5t-53.5 -103.5l-54 -273h-156l148 742h156l-50 -253q69 57 166 57q90 0 143 -48zM346 799l-77 75l-97 -75h-117l152 144h137l113 -144h-111z" />
    <glyph glyph-name="Hbar" unicode="&#x126;" horiz-adv-x="834" 
d="M824 700l-140 -700h-162l57 285h-317l-57 -285h-163l140 700h163l-55 -275h317l55 275h162zM69 618h834l-21 -108h-833z" />
    <glyph glyph-name="hbar" unicode="&#x127;" horiz-adv-x="691" 
d="M582 498q53 -48 53 -136q0 -32 -7 -64l-60 -298h-156l58 288q4 17 4 37q0 42 -23 64t-69 22q-60 0 -99.5 -34.5t-53.5 -103.5l-54 -273h-156l148 742h156l-50 -253q69 57 166 57q90 0 143 -48zM82 683h411l-17 -90h-412z" />
    <glyph glyph-name="Itilde" unicode="&#x128;" horiz-adv-x="328" 
d="M169 700h163l-140 -700h-163zM298.5 764q-19.5 10 -42.5 28q-19 14 -29 19.5t-22 5.5q-20 0 -34 -15t-19 -41h-79q11 71 46 108.5t87 37.5q26 0 45.5 -10t42.5 -28q18 -14 28.5 -20t22.5 -6q21 0 34.5 14.5t18.5 39.5h79q-11 -68 -45.5 -105.5t-86.5 -37.5
q-27 0 -46.5 10z" />
    <glyph glyph-name="itilde" unicode="&#x129;" horiz-adv-x="300" 
d="M126 538h155l-107 -538h-155zM249 614.5q-17 10.5 -38 30.5q-13 13 -20.5 18.5t-16.5 5.5q-15 0 -25 -15t-14 -43h-78q8 72 38.5 109t79.5 37q25 0 42.5 -11t35.5 -30q13 -13 20.5 -18.5t16.5 -5.5q16 0 26.5 14.5t13.5 40.5h77q-7 -70 -37 -106.5t-79 -36.5
q-25 0 -42 10.5z" />
    <glyph glyph-name="Imacron" unicode="&#x12a;" horiz-adv-x="328" 
d="M169 700h163l-140 -700h-163zM134 873h300l-17 -88h-300z" />
    <glyph glyph-name="imacron" unicode="&#x12b;" horiz-adv-x="300" 
d="M126 538h155l-107 -538h-155zM91 723h300l-17 -88h-300z" />
    <glyph glyph-name="Ibreve" unicode="&#x12c;" horiz-adv-x="328" 
d="M169 700h163l-140 -700h-163zM151 786.5q-47 37.5 -47 99.5q0 10 1 15h95q-1 -32 20.5 -51.5t58.5 -19.5t62 19.5t31 51.5h101q-13 -70 -68 -111t-135 -41q-72 0 -119 37.5z" />
    <glyph glyph-name="ibreve" unicode="&#x12d;" horiz-adv-x="300" 
d="M126 538h155l-107 -538h-155zM125 634q-40 35 -40 94q0 7 2 23h91q-1 -5 -1 -14q0 -27 15.5 -42.5t43.5 -15.5q63 0 74 72h95q-11 -71 -56.5 -111.5t-117.5 -40.5q-66 0 -106 35z" />
    <glyph glyph-name="Iogonek" unicode="&#x12e;" horiz-adv-x="328" 
d="M169 700h163l-140 -700h-163zM31 -205.5q-28 26.5 -28 69.5q0 56 40 101t108 77l41 -42q-86 -61 -86 -119q0 -16 9 -25t24 -9q18 0 35 10l9 -70q-29 -19 -72 -19q-52 0 -80 26.5z" />
    <glyph glyph-name="iogonek" unicode="&#x12f;" horiz-adv-x="300" 
d="M126 538h155l-107 -538h-155zM164.5 636.5q-25.5 23.5 -25.5 57.5q0 40 28.5 66.5t74.5 26.5q41 0 66.5 -22.5t25.5 -55.5q0 -43 -29 -69.5t-75 -26.5q-40 0 -65.5 23.5zM13 -205.5q-28 26.5 -28 69.5q0 56 40 101t108 77l41 -42q-86 -61 -86 -119q0 -16 9 -25t24 -9
q18 0 35 10l9 -70q-29 -19 -72 -19q-52 0 -80 26.5z" />
    <glyph glyph-name="Idotaccent" unicode="&#x130;" horiz-adv-x="328" 
d="M169 700h163l-140 -700h-163zM216 783q-22 21 -22 53q0 42 26 68.5t65 26.5q35 0 56.5 -21t21.5 -54q0 -41 -26 -67.5t-64 -26.5q-35 0 -57 21z" />
    <glyph glyph-name="dotlessi" unicode="&#x131;" horiz-adv-x="300" 
d="M126 538h155l-107 -538h-155z" />
    <glyph glyph-name="IJ" unicode="&#x132;" horiz-adv-x="724" 
d="M22 66l80 123q91 -65 203 -65q80 0 124 43t63 140l78 393h163l-80 -400q-31 -158 -120 -235t-237 -77q-166 0 -274 78zM163 700h163l-76 -378h-163z" />
    <glyph glyph-name="ij" unicode="&#x133;" horiz-adv-x="606" 
d="M126 538h155l-107 -538h-155zM164.5 636.5q-25.5 23.5 -25.5 57.5q0 40 28.5 66.5t74.5 26.5q41 0 66.5 -22.5t25.5 -55.5q0 -43 -29 -69.5t-75 -26.5q-40 0 -65.5 23.5zM120 -172l62 113q27 -19 65 -19q32 0 50.5 19t26.5 60l108 537h156l-107 -533q-41 -207 -232 -207
q-78 0 -129 30zM470.5 636.5q-25.5 23.5 -25.5 57.5q0 40 28.5 66.5t74.5 26.5q41 0 66.5 -22.5t25.5 -55.5q0 -43 -29 -69.5t-75 -26.5q-40 0 -65.5 23.5z" />
    <glyph glyph-name="Jcircumflex" unicode="&#x134;" horiz-adv-x="541" 
d="M41 15q-58 27 -90 78l107 102q46 -74 123 -74q94 0 116 109l67 340h-245l26 130h406l-93 -462q-26 -134 -94 -192t-185 -58q-80 0 -138 27zM449 757l-77 75l-97 -75h-117l152 144h137l113 -144h-111z" />
    <glyph glyph-name="jcircumflex" unicode="&#x135;" horiz-adv-x="306" 
d="M-180 -172l62 113q27 -19 65 -19q32 0 50.5 19t26.5 60l108 537h156l-107 -533q-41 -207 -232 -207q-78 0 -129 30zM292 607l-56 70l-74 -70h-114l129 144h134l89 -144h-108z" />
    <glyph glyph-name="Kcommaaccent" unicode="&#x136;" horiz-adv-x="740" 
d="M457 376l243 -376h-182l-180 274l-113 -100l-35 -174h-161l140 700h161l-64 -321l363 321h196zM350.5 -88q17.5 -15 17.5 -38q0 -16 -6.5 -30.5t-24.5 -40.5l-49 -69h-71l41 81q-30 12 -30 44q0 30 19 49t54 19q32 0 49.5 -15z" />
    <glyph glyph-name="kcommaaccent" unicode="&#x137;" horiz-adv-x="645" 
d="M420 304l185 -304h-181l-128 209l-95 -79l-26 -130h-156l148 742h156l-83 -415l258 211h203zM289.5 -88q17.5 -15 17.5 -38q0 -16 -6.5 -30.5t-24.5 -40.5l-49 -69h-71l41 81q-30 12 -30 44q0 30 19 49t54 19q32 0 49.5 -15z" />
    <glyph glyph-name="kgreenlandic" unicode="&#x138;" horiz-adv-x="645" 
d="M420 304l185 -304h-181l-128 209l-95 -80l-26 -129h-156l107 538h156l-42 -212l258 212h203z" />
    <glyph glyph-name="Lacute" unicode="&#x139;" horiz-adv-x="604" 
d="M169 700h163l-114 -568h351l-27 -132h-513zM319 901h172l-196 -144h-126z" />
    <glyph glyph-name="lacute" unicode="&#x13a;" horiz-adv-x="301" 
d="M167 742h156l-148 -742h-156zM313 943h172l-196 -144h-126z" />
    <glyph glyph-name="Lcommaaccent" unicode="&#x13b;" horiz-adv-x="604" 
d="M169 700h163l-114 -568h351l-27 -132h-513zM322.5 -88q17.5 -15 17.5 -38q0 -16 -6.5 -30.5t-24.5 -40.5l-49 -69h-71l41 81q-30 12 -30 44q0 30 19 49t54 19q32 0 49.5 -15z" />
    <glyph glyph-name="lcommaaccent" unicode="&#x13c;" horiz-adv-x="301" 
d="M167 742h156l-148 -742h-156zM122.5 -88q17.5 -15 17.5 -38q0 -16 -6.5 -30.5t-24.5 -40.5l-49 -69h-71l41 81q-30 12 -30 44q0 30 19 49t54 19q32 0 49.5 -15z" />
    <glyph glyph-name="Lcaron" unicode="&#x13d;" horiz-adv-x="604" 
d="M169 700h163l-114 -568h351l-27 -132h-513zM526 741h117l-61 -201h-96z" />
    <glyph glyph-name="lcaron" unicode="&#x13e;" horiz-adv-x="301" 
d="M167 742h156l-148 -742h-156zM411 783h117l-61 -201h-96z" />
    <glyph glyph-name="Ldot" unicode="&#x13f;" horiz-adv-x="604" 
d="M169 700h163l-114 -568h351l-27 -132h-513zM434 351.5q-23 22.5 -23 57.5q0 41 26.5 67.5t64.5 26.5q35 0 57.5 -22.5t22.5 -58.5q0 -41 -26.5 -67t-63.5 -26q-35 0 -58 22.5z" />
    <glyph glyph-name="ldot" unicode="&#x140;" horiz-adv-x="420" 
d="M167 742h156l-148 -742h-156zM323 305.5q-21 20.5 -21 52.5q0 36 23 60t58 24q32 0 53 -20t21 -52q0 -37 -23.5 -61t-58.5 -24q-31 0 -52 20.5z" />
    <glyph glyph-name="Lslash" unicode="&#x141;" horiz-adv-x="617" 
d="M182 700h163l-114 -568h351l-27 -132h-513zM-13 304l432 283l52 -81l-431 -282z" />
    <glyph glyph-name="lslash" unicode="&#x142;" horiz-adv-x="327" 
d="M180 742h156l-148 -742h-156zM-29 281l373 244l49 -80l-373 -244z" />
    <glyph glyph-name="Nacute" unicode="&#x143;" horiz-adv-x="808" 
d="M811 700l-140 -700h-133l-261 438l-88 -438h-160l140 700h134l261 -439l87 439h160zM559 901h172l-196 -144h-126z" />
    <glyph glyph-name="nacute" unicode="&#x144;" horiz-adv-x="691" 
d="M582 498.5q53 -47.5 53 -135.5q0 -33 -7 -65l-60 -298h-156l58 288q4 17 4 37q0 42 -23 64t-69 22q-60 0 -99.5 -34.5t-53.5 -103.5l-54 -273h-156l107 538h148l-12 -58q72 66 177 66q90 0 143 -47.5zM473 751h172l-196 -144h-126z" />
    <glyph glyph-name="Ncommaaccent" unicode="&#x145;" horiz-adv-x="808" 
d="M811 700l-140 -700h-133l-261 438l-88 -438h-160l140 700h134l261 -439l87 439h160zM376.5 -88q17.5 -15 17.5 -38q0 -16 -6.5 -30.5t-24.5 -40.5l-49 -69h-71l41 81q-30 12 -30 44q0 30 19 49t54 19q32 0 49.5 -15z" />
    <glyph glyph-name="ncommaaccent" unicode="&#x146;" horiz-adv-x="691" 
d="M582 498.5q53 -47.5 53 -135.5q0 -33 -7 -65l-60 -298h-156l58 288q4 17 4 37q0 42 -23 64t-69 22q-60 0 -99.5 -34.5t-53.5 -103.5l-54 -273h-156l107 538h148l-12 -58q72 66 177 66q90 0 143 -47.5zM320.5 -88q17.5 -15 17.5 -38q0 -16 -6.5 -30.5t-24.5 -40.5l-49 -69
h-71l41 81q-30 12 -30 44q0 30 19 49t54 19q32 0 49.5 -15z" />
    <glyph glyph-name="Ncaron" unicode="&#x147;" horiz-adv-x="808" 
d="M811 700l-140 -700h-133l-261 438l-88 -438h-160l140 700h134l261 -439l87 439h160zM725 901l-151 -144h-138l-112 144h111l77 -75l97 75h116z" />
    <glyph glyph-name="ncaron" unicode="&#x148;" horiz-adv-x="691" 
d="M582 498.5q53 -47.5 53 -135.5q0 -33 -7 -65l-60 -298h-156l58 288q4 17 4 37q0 42 -23 64t-69 22q-60 0 -99.5 -34.5t-53.5 -103.5l-54 -273h-156l107 538h148l-12 -58q72 66 177 66q90 0 143 -47.5zM639 751l-151 -144h-138l-112 144h111l77 -75l97 75h116z" />
    <glyph glyph-name="napostrophe" unicode="&#x149;" horiz-adv-x="785" 
d="M164.371 700h102l-109.573 -262h-82zM677 498.5q53 -47.5 53 -135.5q0 -33 -7 -65l-60 -298h-156l58 288q4 17 4 37q0 42 -23 64t-69 22q-60 0 -99.5 -34.5t-53.5 -103.5l-54 -273h-156l107 538h148l-12 -58q72 66 177 66q90 0 143 -47.5z" />
    <glyph glyph-name="Eng" unicode="&#x14a;" horiz-adv-x="808" 
d="M811 700l-126 -633q-21 -103 -58.5 -161.5t-92 -83t-131.5 -24.5q-55 0 -106 18.5t-81 51.5l87 108q19 -21 45.5 -33t57.5 -12q46 0 73 23.5t39 78.5l-241 405l-88 -438h-160l140 700h134l261 -439l87 439h160z" />
    <glyph glyph-name="eng" unicode="&#x14b;" horiz-adv-x="691" 
d="M582 498.5q53 -47.5 53 -135.5q0 -33 -7 -65l-59 -293q-41 -207 -232 -207q-76 0 -129 30l62 113q29 -19 65 -19q32 0 50.5 19t26.5 60l58 287q4 17 4 37q0 42 -23 64t-69 22q-60 0 -99.5 -34.5t-53.5 -103.5l-54 -273h-156l107 538h148l-12 -58q72 66 177 66
q90 0 143 -47.5z" />
    <glyph glyph-name="Omacron" unicode="&#x14c;" horiz-adv-x="844" 
d="M210 26q-77 38 -118 107t-41 159q0 119 54.5 214.5t153 150.5t225.5 55q105 0 182 -38t118 -107t41 -159q0 -119 -54.5 -214.5t-153 -150.5t-225.5 -55q-105 0 -182 38zM541 163q58 37 89 99t31 137q0 80 -50 127.5t-141 47.5q-77 0 -135 -37t-89 -99t-31 -137
q0 -80 50 -127.5t141 -47.5q77 0 135 37zM357 873h369l-17 -88h-369z" />
    <glyph glyph-name="omacron" unicode="&#x14d;" horiz-adv-x="654" 
d="M157.5 22q-61.5 30 -95 84.5t-33.5 126.5q0 89 42 160t116 112t167 41q82 0 143 -30t94.5 -84.5t33.5 -126.5q0 -89 -41.5 -160t-116 -112t-167.5 -41q-81 0 -142.5 30zM391 143.5q36 22.5 56 62.5t20 92q0 55 -32 87t-90 32q-46 0 -82 -22.5t-56 -62.5t-20 -92
q0 -55 32.5 -87t90.5 -32q45 0 81 22.5zM230 723h369l-17 -88h-369z" />
    <glyph glyph-name="Obreve" unicode="&#x14e;" horiz-adv-x="844" 
d="M210 26q-77 38 -118 107t-41 159q0 119 54.5 214.5t153 150.5t225.5 55q105 0 182 -38t118 -107t41 -159q0 -119 -54.5 -214.5t-153 -150.5t-225.5 -55q-105 0 -182 38zM541 163q58 37 89 99t31 137q0 80 -50 127.5t-141 47.5q-77 0 -135 -37t-89 -99t-31 -137
q0 -80 50 -127.5t141 -47.5q77 0 135 37zM409 786.5q-47 37.5 -47 99.5q0 10 1 15h95q-1 -32 20.5 -51.5t58.5 -19.5t62 19.5t31 51.5h101q-13 -70 -68 -111t-135 -41q-72 0 -119 37.5z" />
    <glyph glyph-name="obreve" unicode="&#x14f;" horiz-adv-x="654" 
d="M157.5 22q-61.5 30 -95 84.5t-33.5 126.5q0 89 42 160t116 112t167 41q82 0 143 -30t94.5 -84.5t33.5 -126.5q0 -89 -41.5 -160t-116 -112t-167.5 -41q-81 0 -142.5 30zM391 143.5q36 22.5 56 62.5t20 92q0 55 -32 87t-90 32q-46 0 -82 -22.5t-56 -62.5t-20 -92
q0 -55 32.5 -87t90.5 -32q45 0 81 22.5zM282 636.5q-47 37.5 -47 99.5q0 10 1 15h95q-1 -32 20.5 -51.5t58.5 -19.5t62 19.5t31 51.5h101q-13 -70 -68 -111t-135 -41q-72 0 -119 37.5z" />
    <glyph glyph-name="Ohungarumlaut" unicode="&#x150;" horiz-adv-x="844" 
d="M210 26q-77 38 -118 107t-41 159q0 119 54.5 214.5t153 150.5t225.5 55q105 0 182 -38t118 -107t41 -159q0 -119 -54.5 -214.5t-153 -150.5t-225.5 -55q-105 0 -182 38zM541 163q58 37 89 99t31 137q0 80 -50 127.5t-141 47.5q-77 0 -135 -37t-89 -99t-31 -137
q0 -80 50 -127.5t141 -47.5q77 0 135 37zM447 901h150l-120 -144h-118zM649 901h150l-121 -144h-116z" />
    <glyph glyph-name="ohungarumlaut" unicode="&#x151;" horiz-adv-x="654" 
d="M157.5 22q-61.5 30 -95 84.5t-33.5 126.5q0 89 42 160t116 112t167 41q82 0 143 -30t94.5 -84.5t33.5 -126.5q0 -89 -41.5 -160t-116 -112t-167.5 -41q-81 0 -142.5 30zM391 143.5q36 22.5 56 62.5t20 92q0 55 -32 87t-90 32q-46 0 -82 -22.5t-56 -62.5t-20 -92
q0 -55 32.5 -87t90.5 -32q45 0 81 22.5zM320 751h150l-120 -144h-118zM522 751h150l-121 -144h-116z" />
    <glyph glyph-name="OE" unicode="&#x152;" horiz-adv-x="1136" 
d="M769 570l-30 -152h325l-25 -126h-326l-32 -162h382l-27 -130h-640q-106 0 -184 35.5t-119.5 101.5t-41.5 155q0 122 55 214.5t154 143t227 50.5h676l-26 -130h-368zM521 133l86 434h-125q-82 0 -142.5 -34.5t-92.5 -95t-32 -136.5q0 -79 51 -123.5t148 -44.5h107z" />
    <glyph glyph-name="oe" unicode="&#x153;" horiz-adv-x="1060" 
d="M1026 227h-412q8 -110 139 -110q41 0 78.5 13t65.5 37l65 -103q-45 -36 -103 -54t-122 -18q-71 0 -127 25t-90 70q-43 -45 -101.5 -70t-127.5 -25q-78 0 -137 30t-91.5 84.5t-32.5 126.5q0 89 40 160t111.5 112t161.5 41q71 0 126 -24.5t88 -69.5q42 45 99 69.5t123 24.5
q78 0 135.5 -29t89 -83t31.5 -125q0 -44 -9 -82zM679 399.5q-38 -29.5 -54 -81.5h267q0 52 -32.5 81.5t-87.5 29.5t-93 -29.5zM392 143.5q36 22.5 56 62.5t20 92q0 55 -32.5 87t-90.5 32q-46 0 -82 -22.5t-56 -62.5t-20 -92q0 -55 32.5 -87t90.5 -32q46 0 82 22.5z" />
    <glyph glyph-name="Racute" unicode="&#x154;" horiz-adv-x="735" 
d="M675 315q-53 -70 -147 -99l122 -216h-171l-110 196h-138l-39 -196h-163l140 700h285q130 0 202 -57t72 -160q0 -98 -53 -168zM519.5 362q44.5 37 44.5 106q0 50 -34 75t-97 25h-128l-49 -243h138q81 0 125.5 37zM528 901h172l-196 -144h-126z" />
    <glyph glyph-name="racute" unicode="&#x155;" horiz-adv-x="431" 
d="M345.5 529q49.5 17 116.5 17l-28 -144q-28 2 -36 2q-71 0 -113.5 -35t-57.5 -109l-52 -260h-156l107 538h148l-13 -64q35 38 84.5 55zM363 751h172l-196 -144h-126z" />
    <glyph glyph-name="Rcommaaccent" unicode="&#x156;" horiz-adv-x="735" 
d="M675 315q-53 -70 -147 -99l122 -216h-171l-110 196h-138l-39 -196h-163l140 700h285q130 0 202 -57t72 -160q0 -98 -53 -168zM519.5 362q44.5 37 44.5 106q0 50 -34 75t-97 25h-128l-49 -243h138q81 0 125.5 37zM345.5 -88q17.5 -15 17.5 -38q0 -16 -6.5 -30.5
t-24.5 -40.5l-49 -69h-71l41 81q-30 12 -30 44q0 30 19 49t54 19q32 0 49.5 -15z" />
    <glyph glyph-name="rcommaaccent" unicode="&#x157;" horiz-adv-x="431" 
d="M345.5 529q49.5 17 116.5 17l-28 -144q-28 2 -36 2q-71 0 -113.5 -35t-57.5 -109l-52 -260h-156l107 538h148l-13 -64q35 38 84.5 55zM122.5 -88q17.5 -15 17.5 -38q0 -16 -6.5 -30.5t-24.5 -40.5l-49 -69h-71l41 81q-30 12 -30 44q0 30 19 49t54 19q32 0 49.5 -15z" />
    <glyph glyph-name="Rcaron" unicode="&#x158;" horiz-adv-x="735" 
d="M675 315q-53 -70 -147 -99l122 -216h-171l-110 196h-138l-39 -196h-163l140 700h285q130 0 202 -57t72 -160q0 -98 -53 -168zM519.5 362q44.5 37 44.5 106q0 50 -34 75t-97 25h-128l-49 -243h138q81 0 125.5 37zM694 901l-151 -144h-138l-112 144h111l77 -75l97 75h116z
" />
    <glyph glyph-name="rcaron" unicode="&#x159;" horiz-adv-x="431" 
d="M345.5 529q49.5 17 116.5 17l-28 -144q-28 2 -36 2q-71 0 -113.5 -35t-57.5 -109l-52 -260h-156l107 538h148l-13 -64q35 38 84.5 55zM529 751l-151 -144h-138l-112 144h111l77 -75l97 75h116z" />
    <glyph glyph-name="Sacute" unicode="&#x15a;" horiz-adv-x="638" 
d="M114 10q-76 22 -122 56l66 125q48 -35 108 -54t123 -19q67 0 106 22t39 60q0 31 -31 47.5t-99 35.5q-68 20 -111 38.5t-74.5 55.5t-31.5 98q0 71 39.5 125t112 83t168.5 29q71 0 134 -15.5t108 -44.5l-61 -124q-39 27 -88 40.5t-102 13.5q-69 0 -109 -24t-40 -62
q0 -23 17 -38.5t43 -25t73 -22.5q67 -18 110 -36.5t73.5 -54t30.5 -93.5q0 -72 -40 -125.5t-113 -83t-170 -29.5q-83 0 -159 22zM478 901h172l-196 -144h-126z" />
    <glyph glyph-name="sacute" unicode="&#x15b;" horiz-adv-x="531" 
d="M82.5 7.5q-62.5 15.5 -97.5 40.5l60 113q35 -23 85.5 -37t101.5 -14q53 0 79 13.5t26 38.5q0 20 -23 29t-74 19q-58 11 -95.5 24t-65 42.5t-27.5 80.5q0 89 74.5 139t195.5 50q56 0 109 -12t90 -33l-56 -114q-66 41 -159 41q-51 0 -77.5 -15t-26.5 -38q0 -21 23 -30.5
t77 -20.5q57 -11 93.5 -23.5t63.5 -41.5t27 -79q0 -90 -75.5 -139t-195.5 -49q-70 0 -132.5 15.5zM385 751h172l-196 -144h-126z" />
    <glyph glyph-name="Scircumflex" unicode="&#x15c;" horiz-adv-x="638" 
d="M114 10q-76 22 -122 56l66 125q48 -35 108 -54t123 -19q67 0 106 22t39 60q0 31 -31 47.5t-99 35.5q-68 20 -111 38.5t-74.5 55.5t-31.5 98q0 71 39.5 125t112 83t168.5 29q71 0 134 -15.5t108 -44.5l-61 -124q-39 27 -88 40.5t-102 13.5q-69 0 -109 -24t-40 -62
q0 -23 17 -38.5t43 -25t73 -22.5q67 -18 110 -36.5t73.5 -54t30.5 -93.5q0 -72 -40 -125.5t-113 -83t-170 -29.5q-83 0 -159 22zM511 757l-77 75l-97 -75h-117l152 144h137l113 -144h-111z" />
    <glyph glyph-name="scircumflex" unicode="&#x15d;" horiz-adv-x="531" 
d="M82.5 7.5q-62.5 15.5 -97.5 40.5l60 113q35 -23 85.5 -37t101.5 -14q53 0 79 13.5t26 38.5q0 20 -23 29t-74 19q-58 11 -95.5 24t-65 42.5t-27.5 80.5q0 89 74.5 139t195.5 50q56 0 109 -12t90 -33l-56 -114q-66 41 -159 41q-51 0 -77.5 -15t-26.5 -38q0 -21 23 -30.5
t77 -20.5q57 -11 93.5 -23.5t63.5 -41.5t27 -79q0 -90 -75.5 -139t-195.5 -49q-70 0 -132.5 15.5zM418 607l-77 75l-97 -75h-117l152 144h137l113 -144h-111z" />
    <glyph glyph-name="Scedilla" unicode="&#x15e;" horiz-adv-x="638" 
d="M114 10q-76 22 -122 56l66 125q48 -35 108 -54t123 -19q67 0 106 22t39 60q0 31 -31 47.5t-99 35.5q-68 20 -111 38.5t-74.5 55.5t-31.5 98q0 71 39.5 125t112 83t168.5 29q71 0 134 -15.5t108 -44.5l-61 -124q-39 27 -88 40.5t-102 13.5q-69 0 -109 -24t-40 -62
q0 -23 17 -38.5t43 -25t73 -22.5q67 -18 110 -36.5t73.5 -54t30.5 -93.5q0 -72 -40 -125.5t-113 -83t-170 -29.5q-83 0 -159 22zM104 -211l34 67q30 -15 67 -15q27 0 40.5 9t14.5 24q3 28 -43 28h-35l48 106h83l-25 -58q33 -4 51.5 -23.5t18.5 -45.5q0 -53 -43.5 -83
t-116.5 -30q-55 0 -94 21z" />
    <glyph glyph-name="scedilla" unicode="&#x15f;" horiz-adv-x="531" 
d="M82.5 7.5q-62.5 15.5 -97.5 40.5l60 113q35 -23 85.5 -37t101.5 -14q53 0 79 13.5t26 38.5q0 20 -23 29t-74 19q-58 11 -95.5 24t-65 42.5t-27.5 80.5q0 89 74.5 139t195.5 50q56 0 109 -12t90 -33l-56 -114q-66 41 -159 41q-51 0 -77.5 -15t-26.5 -38q0 -21 23 -30.5
t77 -20.5q57 -11 93.5 -23.5t63.5 -41.5t27 -79q0 -90 -75.5 -139t-195.5 -49q-70 0 -132.5 15.5zM41 -211l34 67q30 -15 67 -15q27 0 40.5 9t14.5 24q3 28 -43 28h-35l48 106h83l-25 -58q33 -4 51.5 -23.5t18.5 -45.5q0 -53 -43.5 -83t-116.5 -30q-55 0 -94 21z" />
    <glyph glyph-name="Scaron" unicode="&#x160;" horiz-adv-x="638" 
d="M114 10q-76 22 -122 56l66 125q48 -35 108 -54t123 -19q67 0 106 22t39 60q0 31 -31 47.5t-99 35.5q-68 20 -111 38.5t-74.5 55.5t-31.5 98q0 71 39.5 125t112 83t168.5 29q71 0 134 -15.5t108 -44.5l-61 -124q-39 27 -88 40.5t-102 13.5q-69 0 -109 -24t-40 -62
q0 -23 17 -38.5t43 -25t73 -22.5q67 -18 110 -36.5t73.5 -54t30.5 -93.5q0 -72 -40 -125.5t-113 -83t-170 -29.5q-83 0 -159 22zM644 901l-151 -144h-138l-112 144h111l77 -75l97 75h116z" />
    <glyph glyph-name="scaron" unicode="&#x161;" horiz-adv-x="531" 
d="M82.5 7.5q-62.5 15.5 -97.5 40.5l60 113q35 -23 85.5 -37t101.5 -14q53 0 79 13.5t26 38.5q0 20 -23 29t-74 19q-58 11 -95.5 24t-65 42.5t-27.5 80.5q0 89 74.5 139t195.5 50q56 0 109 -12t90 -33l-56 -114q-66 41 -159 41q-51 0 -77.5 -15t-26.5 -38q0 -21 23 -30.5
t77 -20.5q57 -11 93.5 -23.5t63.5 -41.5t27 -79q0 -90 -75.5 -139t-195.5 -49q-70 0 -132.5 15.5zM551 751l-151 -144h-138l-112 144h111l77 -75l97 75h116z" />
    <glyph glyph-name="uni0162" unicode="&#x162;" horiz-adv-x="618" 
d="M287 568h-224l27 132h610l-27 -132h-223l-114 -568h-162zM89 -211l34 67q30 -15 67 -15q27 0 40.5 9t14.5 24q3 28 -43 28h-35l48 106h83l-25 -58q33 -4 51.5 -23.5t18.5 -45.5q0 -53 -43.5 -83t-116.5 -30q-55 0 -94 21z" />
    <glyph glyph-name="uni0163" unicode="&#x163;" horiz-adv-x="435" 
d="M231 190q-2 -8 -2 -22q0 -52 57 -52q31 0 63 19l23 -111q-52 -32 -134 -32q-76 0 -122 40t-46 110q0 20 5 47l43 217h-83l24 120h83l26 131h156l-26 -131h134l-24 -120h-134zM43 -211l34 67q30 -15 67 -15q27 0 40.5 9t14.5 24q3 28 -43 28h-35l48 106h83l-25 -58
q33 -4 51.5 -23.5t18.5 -45.5q0 -53 -43.5 -83t-116.5 -30q-55 0 -94 21z" />
    <glyph glyph-name="Tcaron" unicode="&#x164;" horiz-adv-x="618" 
d="M287 568h-224l27 132h610l-27 -132h-223l-114 -568h-162zM629 901l-151 -144h-138l-112 144h111l77 -75l97 75h116z" />
    <glyph glyph-name="tcaron" unicode="&#x165;" horiz-adv-x="435" 
d="M231 190q-2 -8 -2 -22q0 -52 57 -52q31 0 63 19l23 -111q-52 -32 -134 -32q-76 0 -122 40t-46 110q0 20 5 47l43 217h-83l24 120h83l26 131h156l-26 -131h134l-24 -120h-134zM417 783h117l-61 -201h-96z" />
    <glyph glyph-name="Tbar" unicode="&#x166;" horiz-adv-x="618" 
d="M287 568h-224l27 132h610l-27 -132h-223l-114 -568h-162zM116 382h432l-21 -108h-433z" />
    <glyph glyph-name="tbar" unicode="&#x167;" horiz-adv-x="445" 
d="M236 190q-2 -8 -2 -22q0 -52 57 -52q31 0 63 19l23 -111q-52 -32 -134 -32q-76 0 -122 40t-46 110q0 20 5 47l43 217h-83l24 120h83l26 131h156l-26 -131h134l-24 -120h-134zM35 320h348l-17 -90h-349z" />
    <glyph glyph-name="Utilde" unicode="&#x168;" horiz-adv-x="788" 
d="M152 53.5q-75 65.5 -75 179.5q0 33 8 75l78 392h163l-78 -389q-6 -33 -6 -59q0 -63 34.5 -94.5t100.5 -31.5q74 0 118 44t64 141l78 389h159l-79 -399q-64 -313 -358 -313q-132 0 -207 65.5zM529.5 764q-19.5 10 -42.5 28q-19 14 -29 19.5t-22 5.5q-20 0 -34 -15t-19 -41
h-79q11 71 46 108.5t87 37.5q26 0 45.5 -10t42.5 -28q18 -14 28.5 -20t22.5 -6q21 0 34.5 14.5t18.5 39.5h79q-11 -68 -45.5 -105.5t-86.5 -37.5q-27 0 -46.5 10z" />
    <glyph glyph-name="utilde" unicode="&#x169;" horiz-adv-x="687" 
d="M668 538l-107 -538h-148l11 58q-35 -33 -80 -49.5t-95 -16.5q-88 0 -140.5 48t-52.5 135q0 33 7 65l59 298h156l-57 -288q-4 -19 -4 -39q0 -84 90 -84q59 0 97.5 34.5t52.5 103.5l55 273h156zM446.5 614q-19.5 10 -42.5 28q-19 14 -29 19.5t-22 5.5q-20 0 -34 -15
t-19 -41h-79q11 71 46 108.5t87 37.5q26 0 45.5 -10t42.5 -28q18 -14 28.5 -20t22.5 -6q21 0 34.5 14.5t18.5 39.5h79q-11 -68 -45.5 -105.5t-86.5 -37.5q-27 0 -46.5 10z" />
    <glyph glyph-name="Umacron" unicode="&#x16a;" horiz-adv-x="788" 
d="M152 53.5q-75 65.5 -75 179.5q0 33 8 75l78 392h163l-78 -389q-6 -33 -6 -59q0 -63 34.5 -94.5t100.5 -31.5q74 0 118 44t64 141l78 389h159l-79 -399q-64 -313 -358 -313q-132 0 -207 65.5zM330 873h369l-17 -88h-369z" />
    <glyph glyph-name="umacron" unicode="&#x16b;" horiz-adv-x="687" 
d="M668 538l-107 -538h-148l11 58q-35 -33 -80 -49.5t-95 -16.5q-88 0 -140.5 48t-52.5 135q0 33 7 65l59 298h156l-57 -288q-4 -19 -4 -39q0 -84 90 -84q59 0 97.5 34.5t52.5 103.5l55 273h156zM247 723h369l-17 -88h-369z" />
    <glyph glyph-name="Ubreve" unicode="&#x16c;" horiz-adv-x="788" 
d="M152 53.5q-75 65.5 -75 179.5q0 33 8 75l78 392h163l-78 -389q-6 -33 -6 -59q0 -63 34.5 -94.5t100.5 -31.5q74 0 118 44t64 141l78 389h159l-79 -399q-64 -313 -358 -313q-132 0 -207 65.5zM382 786.5q-47 37.5 -47 99.5q0 10 1 15h95q-1 -32 20.5 -51.5t58.5 -19.5
t62 19.5t31 51.5h101q-13 -70 -68 -111t-135 -41q-72 0 -119 37.5z" />
    <glyph glyph-name="ubreve" unicode="&#x16d;" horiz-adv-x="687" 
d="M668 538l-107 -538h-148l11 58q-35 -33 -80 -49.5t-95 -16.5q-88 0 -140.5 48t-52.5 135q0 33 7 65l59 298h156l-57 -288q-4 -19 -4 -39q0 -84 90 -84q59 0 97.5 34.5t52.5 103.5l55 273h156zM299 636.5q-47 37.5 -47 99.5q0 10 1 15h95q-1 -32 20.5 -51.5t58.5 -19.5
t62 19.5t31 51.5h101q-13 -70 -68 -111t-135 -41q-72 0 -119 37.5z" />
    <glyph glyph-name="Uring" unicode="&#x16e;" horiz-adv-x="788" 
d="M152 53.5q-75 65.5 -75 179.5q0 33 8 75l78 392h163l-78 -389q-6 -33 -6 -59q0 -63 34.5 -94.5t100.5 -31.5q74 0 118 44t64 141l78 389h159l-79 -399q-64 -313 -358 -313q-132 0 -207 65.5zM427 789q-36 35 -36 86q0 50 36 85.5t88 35.5q53 0 89 -35t36 -86t-36 -86
t-89 -35q-52 0 -88 35zM558.5 831.5q17.5 17.5 17.5 43.5t-17.5 43.5t-43.5 17.5q-25 0 -42.5 -17.5t-17.5 -43.5t17 -43.5t43 -17.5t43.5 17.5z" />
    <glyph glyph-name="uring" unicode="&#x16f;" horiz-adv-x="687" 
d="M668 538l-107 -538h-148l11 58q-35 -33 -80 -49.5t-95 -16.5q-88 0 -140.5 48t-52.5 135q0 33 7 65l59 298h156l-57 -288q-4 -19 -4 -39q0 -84 90 -84q59 0 97.5 34.5t52.5 103.5l55 273h156zM341 627q-36 35 -36 86q0 50 36 85.5t88 35.5q53 0 89 -35t36 -86t-36 -86
t-89 -35q-52 0 -88 35zM472.5 669.5q17.5 17.5 17.5 43.5t-17.5 43.5t-43.5 17.5q-25 0 -42.5 -17.5t-17.5 -43.5t17 -43.5t43 -17.5t43.5 17.5z" />
    <glyph glyph-name="Uhungarumlaut" unicode="&#x170;" horiz-adv-x="788" 
d="M152 53.5q-75 65.5 -75 179.5q0 33 8 75l78 392h163l-78 -389q-6 -33 -6 -59q0 -63 34.5 -94.5t100.5 -31.5q74 0 118 44t64 141l78 389h159l-79 -399q-64 -313 -358 -313q-132 0 -207 65.5zM420 901h150l-120 -144h-118zM622 901h150l-121 -144h-116z" />
    <glyph glyph-name="uhungarumlaut" unicode="&#x171;" horiz-adv-x="687" 
d="M668 538l-107 -538h-148l11 58q-35 -33 -80 -49.5t-95 -16.5q-88 0 -140.5 48t-52.5 135q0 33 7 65l59 298h156l-57 -288q-4 -19 -4 -39q0 -84 90 -84q59 0 97.5 34.5t52.5 103.5l55 273h156zM337 751h150l-120 -144h-118zM539 751h150l-121 -144h-116z" />
    <glyph glyph-name="Uogonek" unicode="&#x172;" horiz-adv-x="788" 
d="M796 700l-79 -399q-51 -254 -256 -302q-79 -18 -116.5 -47.5t-37.5 -62.5q0 -20 13 -31t35 -11q34 0 64 15l11 -71q-48 -23 -100 -23q-57 0 -91.5 26t-34.5 73q0 74 81 127q-98 17 -153 80t-55 160q0 32 8 74l78 392h163l-78 -389q-6 -33 -6 -59q0 -63 34.5 -94.5
t100.5 -31.5q74 0 118 44t64 141l78 389h159z" />
    <glyph glyph-name="uogonek" unicode="&#x173;" horiz-adv-x="687" 
d="M668 538l-107 -538h-148l11 58q-35 -33 -80 -49.5t-95 -16.5q-88 0 -140.5 48t-52.5 135q0 33 7 65l59 298h156l-57 -288q-4 -19 -4 -39q0 -84 90 -84q59 0 97.5 34.5t52.5 103.5l55 273h156zM354 -205.5q-34 26.5 -34 72.5q0 57 48 101t136 75l57 -43
q-138 -49 -138 -111q0 -20 13 -31t35 -11q34 0 64 15l11 -71q-48 -23 -101 -23q-57 0 -91 26.5z" />
    <glyph glyph-name="Wcircumflex" unicode="&#x174;" horiz-adv-x="1163" 
d="M1228 700l-370 -700h-173l-61 471l-253 -471h-174l-89 700h160l62 -492l263 492h150l60 -496l264 496h161zM768 757l-77 75l-97 -75h-117l152 144h137l113 -144h-111z" />
    <glyph glyph-name="wcircumflex" unicode="&#x175;" horiz-adv-x="941" 
d="M997 538l-297 -538h-154l-62 335l-185 -335h-152l-95 538h142l59 -362l202 362h134l61 -362l200 362h147zM628 607l-77 75l-97 -75h-117l152 144h137l113 -144h-111z" />
    <glyph glyph-name="Ycircumflex" unicode="&#x176;" horiz-adv-x="676" 
d="M413 243l-48 -243h-162l49 250l-180 450h162l125 -312l251 312h167zM525 757l-77 75l-97 -75h-117l152 144h137l113 -144h-111z" />
    <glyph glyph-name="ycircumflex" unicode="&#x177;" horiz-adv-x="598" 
d="M660 538l-358 -574q-58 -94 -112.5 -130t-133.5 -36q-42 0 -82.5 13t-63.5 34l72 112q36 -33 86 -33q30 0 52 15t45 51l5 9l-124 539h156l80 -366l224 366h154zM445 607l-77 75l-97 -75h-117l152 144h137l113 -144h-111z" />
    <glyph glyph-name="Ydieresis" unicode="&#x178;" horiz-adv-x="676" 
d="M413 243l-48 -243h-162l49 250l-180 450h162l125 -312l251 312h167zM296.5 779q-18.5 17 -18.5 45q0 33 22 54.5t52 21.5q28 0 47 -17t19 -45q0 -33 -22.5 -54.5t-52.5 -21.5q-28 0 -46.5 17zM499.5 779q-18.5 17 -18.5 45q0 34 21.5 55t52.5 21q28 0 46.5 -17t18.5 -45
q0 -33 -22 -54.5t-52 -21.5q-28 0 -46.5 17z" />
    <glyph glyph-name="Zacute" unicode="&#x179;" horiz-adv-x="671" 
d="M701 595l-471 -463h392l-27 -132h-612l21 105l472 463h-369l27 132h588zM498 901h172l-196 -144h-126z" />
    <glyph glyph-name="zacute" unicode="&#x17a;" horiz-adv-x="543" 
d="M541 444l-332 -324h276l-24 -120h-480l19 94l332 324h-259l24 120h462zM399 751h172l-196 -144h-126z" />
    <glyph glyph-name="Zdotaccent" unicode="&#x17b;" horiz-adv-x="671" 
d="M701 595l-471 -463h392l-27 -132h-612l21 105l472 463h-369l27 132h588zM396 783q-22 21 -22 53q0 42 26 68.5t65 26.5q35 0 56.5 -21t21.5 -54q0 -41 -26 -67.5t-64 -26.5q-35 0 -57 21z" />
    <glyph glyph-name="zdotaccent" unicode="&#x17c;" horiz-adv-x="543" 
d="M541 444l-332 -324h276l-24 -120h-480l19 94l332 324h-259l24 120h462zM297 633q-22 21 -22 53q0 42 26 68.5t65 26.5q35 0 56.5 -21t21.5 -54q0 -41 -26 -67.5t-64 -26.5q-35 0 -57 21z" />
    <glyph glyph-name="Zcaron" unicode="&#x17d;" horiz-adv-x="671" 
d="M701 595l-471 -463h392l-27 -132h-612l21 105l472 463h-369l27 132h588zM664 901l-151 -144h-138l-112 144h111l77 -75l97 75h116z" />
    <glyph glyph-name="zcaron" unicode="&#x17e;" horiz-adv-x="543" 
d="M541 444l-332 -324h276l-24 -120h-480l19 94l332 324h-259l24 120h462zM565 751l-151 -144h-138l-112 144h111l77 -75l97 75h116z" />
    <glyph glyph-name="longs" unicode="&#x17f;" horiz-adv-x="333" 
d="M518 720l-61 -112q-25 19 -61 19q-34 0 -54 -20t-29 -61l-108 -546h-156l82 406h-84l23 120h85l6 31q18 92 78.5 142.5t153.5 50.5q70 0 125 -30z" />
    <glyph glyph-name="uni018F" unicode="&#x18f;" horiz-adv-x="817" 
d="M636.5 673.5q77.5 -38.5 119 -108t41.5 -161.5q0 -120 -52.5 -214.5t-146.5 -148t-214 -53.5q-101 0 -177.5 38t-117.5 105.5t-41 154.5q0 43 14 105h572v8q0 81 -50 128t-142 47q-60 0 -114.5 -19.5t-97.5 -57.5l-77 112q58 50 136.5 76.5t164.5 26.5q105 0 182.5 -38.5
zM530 163q56 46 83 118h-405q1 -76 48.5 -120t136.5 -44q81 0 137 46z" />
    <glyph glyph-name="florin" unicode="&#x192;" horiz-adv-x="483" 
d="M412 606.5q-25 -19.5 -38 -58.5l-10 -31h137l-37 -120h-133l-135 -412q-29 -92 -92 -139.5t-152 -47.5q-40 0 -74.5 9.5t-54.5 25.5l72 108q24 -19 58 -19q31 0 55 19.5t37 58.5l129 397h-83l37 120h85l11 33q32 99 98 149.5t161 50.5q38 0 70 -7.5t50 -22.5l-75 -113
q-20 19 -58 19q-33 0 -58 -19.5z" />
    <glyph glyph-name="Ohorn" unicode="&#x1a0;" horiz-adv-x="844" 
d="M858.5 650q-35.5 -42 -95.5 -53q62 -77 62 -189q0 -119 -54.5 -214.5t-153 -150.5t-225.5 -55q-105 0 -182 38t-118 107t-41 159q0 119 54.5 214.5t153 150.5t225.5 55q35 0 68 -3.5t61 -7.5q60 -8 89 -8q41 0 64 19.5t23 50.5q0 35 -20 60l93 34q32 -44 32 -101
q0 -64 -35.5 -106zM541 163q58 37 89 99t31 137q0 80 -50 127.5t-141 47.5q-77 0 -135 -37t-89 -99t-31 -137q0 -80 50 -127.5t141 -47.5q77 0 135 37z" />
    <glyph glyph-name="ohorn" unicode="&#x1a1;" horiz-adv-x="654" 
d="M655 501.5q-28 -38.5 -77 -54.5q46 -57 46 -142q0 -89 -41.5 -160t-115.5 -112t-167 -41q-81 0 -142.5 30t-95 84.5t-33.5 126.5q0 89 41.5 160t116 112t167.5 41q34 0 96 -5q42 -4 61 -4q27 0 47.5 18t20.5 47q0 31 -20 60l92 34q32 -43 32 -100q0 -56 -28 -94.5z
M391 143.5q36 22.5 56 62.5t20 92q0 55 -32 87t-90 32q-46 0 -82 -22.5t-56 -62.5t-20 -92q0 -55 32.5 -87t90.5 -32q45 0 81 22.5z" />
    <glyph glyph-name="Uhorn" unicode="&#x1af;" horiz-adv-x="802" 
d="M152 53.5q-75 65.5 -75 179.5q0 33 8 75l78 392h163l-78 -389q-6 -33 -6 -59q0 -63 34.5 -94.5t100.5 -31.5q74 0 118 44t64 141l78 389h159l-79 -399q-64 -313 -358 -313q-132 0 -207 65.5zM713 700h28q27 0 43.5 17.5t16.5 45.5q0 35 -20 60l92 34q32 -44 32 -100
q0 -74 -46 -117.5t-122 -43.5h-24v104z" />
    <glyph glyph-name="uhorn" unicode="&#x1b0;" horiz-adv-x="701" 
d="M668 538l-107 -538h-148l11 58q-35 -33 -80 -49.5t-95 -16.5q-88 0 -140.5 48t-52.5 135q0 33 7 65l59 298h156l-57 -288q-4 -19 -4 -39q0 -84 90 -84q59 0 97.5 34.5t52.5 103.5l55 273h156zM566 538h28q27 0 43.5 17.5t16.5 45.5q0 35 -20 60l92 34q32 -44 32 -100
q0 -74 -46 -117.5t-122 -43.5h-24v104z" />
    <glyph glyph-name="uni01B7" unicode="&#x1b7;" horiz-adv-x="616" 
d="M610 595l-196 -183q73 -17 113 -63t40 -114q0 -71 -41.5 -127t-115.5 -88t-168 -32q-77 0 -144 21t-112 60l78 119q35 -30 84.5 -47t104.5 -17q72 0 111 26.5t39 74.5q0 38 -28.5 56.5t-86.5 18.5h-74l21 107l174 163h-295l26 130h490z" />
    <glyph glyph-name="uni01C4" unicode="&#x1c4;" horiz-adv-x="1449" 
d="M169 700h293q107 0 184.5 -35.5t119 -101.5t41.5 -155q0 -122 -55 -214.5t-153.5 -143t-227.5 -50.5h-342zM376 133q82 0 142.5 34.5t92.5 95t32 136.5q0 79 -51 123.5t-148 44.5h-139l-87 -434h158zM1478 595l-471 -463h392l-27 -132h-612l21 105l472 463h-369l27 132
h588zM1441 901l-151 -144h-138l-112 144h111l77 -75l97 75h116z" />
    <glyph glyph-name="uni01C5" unicode="&#x1c5;" horiz-adv-x="1369" 
d="M169 700h293q107 0 184.5 -35.5t119 -101.5t41.5 -155q0 -122 -55 -214.5t-153.5 -143t-227.5 -50.5h-342zM376 133q82 0 142.5 34.5t92.5 95t32 136.5q0 79 -51 123.5t-148 44.5h-139l-87 -434h158zM1367 444l-332 -324h276l-24 -120h-480l19 94l332 324h-259l24 120
h462zM1391 751l-151 -144h-138l-112 144h111l77 -75l97 75h116z" />
    <glyph glyph-name="uni01C6" unicode="&#x1c6;" horiz-adv-x="1235" 
d="M714 742l-148 -742h-148l11 54q-68 -62 -165 -62q-63 0 -116 29t-84.5 83.5t-31.5 128.5q0 89 39.5 160.5t107.5 112t150 40.5q59 0 103.5 -20t70.5 -59l55 275h156zM394 143.5q36 22.5 56 62.5t20 92q0 55 -32.5 87t-90.5 32q-46 0 -82 -22.5t-56 -62.5t-20 -92
q0 -55 32.5 -87t90.5 -32q46 0 82 22.5zM1233 444l-332 -324h276l-24 -120h-480l19 94l332 324h-259l24 120h462zM1257 751l-151 -144h-138l-112 144h111l77 -75l97 75h116z" />
    <glyph glyph-name="uni01C7" unicode="&#x1c7;" horiz-adv-x="1145" 
d="M169 700h163l-114 -568h351l-27 -132h-513zM645 15q-58 27 -90 78l107 102q46 -74 123 -74q94 0 116 109l67 340h-245l26 130h406l-93 -462q-26 -134 -94 -192t-185 -58q-80 0 -138 27z" />
    <glyph glyph-name="uni01C8" unicode="&#x1c8;" horiz-adv-x="910" 
d="M169 700h163l-114 -568h351l-27 -132h-513zM424 -172l62 113q27 -19 65 -19q32 0 50.5 19t26.5 60l108 537h156l-107 -533q-41 -207 -232 -207q-78 0 -129 30zM774.5 636.5q-25.5 23.5 -25.5 57.5q0 40 28.5 66.5t74.5 26.5q41 0 66.5 -22.5t25.5 -55.5q0 -43 -29 -69.5
t-75 -26.5q-40 0 -65.5 23.5z" />
    <glyph glyph-name="uni01C9" unicode="&#x1c9;" horiz-adv-x="607" 
d="M167 742h156l-148 -742h-156zM121 -172l62 113q27 -19 65 -19q32 0 50.5 19t26.5 60l108 537h156l-107 -533q-41 -207 -232 -207q-78 0 -129 30zM471.5 636.5q-25.5 23.5 -25.5 57.5q0 40 28.5 66.5t74.5 26.5q41 0 66.5 -22.5t25.5 -55.5q0 -43 -29 -69.5t-75 -26.5
q-40 0 -65.5 23.5z" />
    <glyph glyph-name="uni01CA" unicode="&#x1ca;" horiz-adv-x="1349" 
d="M811 700l-140 -700h-133l-261 438l-88 -438h-160l140 700h134l261 -439l87 439h160zM849 15q-58 27 -90 78l107 102q46 -74 123 -74q94 0 116 109l67 340h-245l26 130h406l-93 -462q-26 -134 -94 -192t-185 -58q-80 0 -138 27z" />
    <glyph glyph-name="uni01CB" unicode="&#x1cb;" horiz-adv-x="1114" 
d="M811 700l-140 -700h-133l-261 438l-88 -438h-160l140 700h134l261 -439l87 439h160zM628 -172l62 113q27 -19 65 -19q32 0 50.5 19t26.5 60l108 537h156l-107 -533q-41 -207 -232 -207q-78 0 -129 30zM978.5 636.5q-25.5 23.5 -25.5 57.5q0 40 28.5 66.5t74.5 26.5
q41 0 66.5 -22.5t25.5 -55.5q0 -43 -29 -69.5t-75 -26.5q-40 0 -65.5 23.5z" />
    <glyph glyph-name="uni01CC" unicode="&#x1cc;" horiz-adv-x="997" 
d="M582 498.5q53 -47.5 53 -135.5q0 -33 -7 -65l-60 -298h-156l58 288q4 17 4 37q0 42 -23 64t-69 22q-60 0 -99.5 -34.5t-53.5 -103.5l-54 -273h-156l107 538h148l-12 -58q72 66 177 66q90 0 143 -47.5zM511 -172l62 113q27 -19 65 -19q32 0 50.5 19t26.5 60l108 537h156
l-107 -533q-41 -207 -232 -207q-78 0 -129 30zM861.5 636.5q-25.5 23.5 -25.5 57.5q0 40 28.5 66.5t74.5 26.5q41 0 66.5 -22.5t25.5 -55.5q0 -43 -29 -69.5t-75 -26.5q-40 0 -65.5 23.5z" />
    <glyph glyph-name="uni01CD" unicode="&#x1cd;" horiz-adv-x="766" 
d="M527 150h-326l-91 -150h-173l453 700h160l172 -700h-162zM500 273l-59 270l-165 -270h224zM703 901l-151 -144h-138l-112 144h111l77 -75l97 75h116z" />
    <glyph glyph-name="uni01CE" unicode="&#x1ce;" horiz-adv-x="690" 
d="M672 538l-107 -538h-148l10 53q-67 -61 -165 -61q-63 0 -116 29t-84.5 83.5t-31.5 128.5q0 89 39.5 160.5t107.5 112t150 40.5q124 0 175 -81l14 73h156zM392 143.5q36 22.5 56 62.5t20 92q0 55 -32.5 87t-90.5 32q-46 0 -82 -22.5t-56 -62.5t-20 -92q0 -55 32.5 -87
t90.5 -32q46 0 82 22.5zM640 751l-151 -144h-138l-112 144h111l77 -75l97 75h116z" />
    <glyph glyph-name="uni01D3" unicode="&#x1d3;" horiz-adv-x="788" 
d="M152 53.5q-75 65.5 -75 179.5q0 33 8 75l78 392h163l-78 -389q-6 -33 -6 -59q0 -63 34.5 -94.5t100.5 -31.5q74 0 118 44t64 141l78 389h159l-79 -399q-64 -313 -358 -313q-132 0 -207 65.5zM715 901l-151 -144h-138l-112 144h111l77 -75l97 75h116z" />
    <glyph glyph-name="uni01D4" unicode="&#x1d4;" horiz-adv-x="687" 
d="M668 538l-107 -538h-148l11 58q-35 -33 -80 -49.5t-95 -16.5q-88 0 -140.5 48t-52.5 135q0 33 7 65l59 298h156l-57 -288q-4 -19 -4 -39q0 -84 90 -84q59 0 97.5 34.5t52.5 103.5l55 273h156zM632 751l-151 -144h-138l-112 144h111l77 -75l97 75h116z" />
    <glyph glyph-name="uni01E4" unicode="&#x1e4;" horiz-adv-x="811" 
d="M575 361h148l-58 -288q-53 -41 -123 -63t-145 -22q-105 0 -183 38t-120.5 107t-42.5 159q0 119 55 215t155 150.5t230 54.5q100 0 173.5 -31t118.5 -91l-116 -94q-35 41 -79 59.5t-104 18.5q-80 0 -141 -35.5t-94.5 -97.5t-33.5 -139q0 -81 52.5 -128.5t150.5 -47.5
q62 0 116 25zM400.946 304.747h398.408l-19.3672 -107.144h-399.33z" />
    <glyph glyph-name="uni01E5" unicode="&#x1e5;" horiz-adv-x="714" 
d="M583 39h66l-15 -77h-81q-43 -85 -118 -124.5t-183 -39.5q-157 0 -257 71l73 109q34 -27 83.5 -42.5t105.5 -15.5q83 0 127 42h-168l15 76h197l6 25l13 63q-71 -61 -173 -61q-67 0 -121 25.5t-85 73t-31 110.5q0 76 37.5 138t105 97.5t152.5 35.5q62 0 112 -21.5t76 -65.5
l16 80h149l-90 -448zM429 223q44 42 44 107q0 46 -32.5 73t-89.5 27q-69 0 -113 -42t-44 -108q0 -45 32.5 -72t89.5 -27q69 0 113 42z" />
    <glyph glyph-name="Gcaron" unicode="&#x1e6;" horiz-adv-x="771" 
d="M575 361h148l-58 -288q-53 -41 -123 -63t-145 -22q-105 0 -183 38t-120.5 107t-42.5 159q0 119 55 215t155 150.5t230 54.5q100 0 173.5 -31t118.5 -91l-116 -94q-35 41 -79 59.5t-104 18.5q-80 0 -141 -35.5t-94.5 -97.5t-33.5 -139q0 -81 52.5 -128.5t150.5 -47.5
q62 0 116 25zM736 901l-151 -144h-138l-112 144h111l77 -75l97 75h116z" />
    <glyph glyph-name="gcaron" unicode="&#x1e7;" horiz-adv-x="700" 
d="M681 538l-89 -448q-30 -152 -115.5 -222t-228.5 -70q-78 0 -143.5 18t-112.5 53l74 113q32 -27 82.5 -42.5t106.5 -15.5q79 0 120 34.5t56 104.5l4 23q-65 -60 -164 -60q-67 0 -121 27.5t-85.5 78.5t-31.5 120q0 82 39 149t107.5 106t153.5 39q63 0 110.5 -23.5
t71.5 -72.5l17 88h149zM425 198q44 44 44 113q0 49 -32 77.5t-89 28.5q-69 0 -113.5 -44t-44.5 -113q0 -49 33 -77.5t90 -28.5q68 0 112 44zM632 751l-151 -144h-138l-112 144h111l77 -75l97 75h116z" />
    <glyph glyph-name="uni01E8" unicode="&#x1e8;" horiz-adv-x="740" 
d="M457 376l243 -376h-182l-180 274l-113 -100l-35 -174h-161l140 700h161l-64 -321l363 321h196zM699 901l-151 -144h-138l-112 144h111l77 -75l97 75h116z" />
    <glyph glyph-name="uni01E9" unicode="&#x1e9;" horiz-adv-x="645" 
d="M420 304l185 -304h-181l-128 209l-95 -79l-26 -130h-156l148 742h156l-83 -415l258 211h203zM482 955l-151 -144h-138l-112 144h111l77 -75l97 75h116z" />
    <glyph glyph-name="uni01EA" unicode="&#x1ea;" horiz-adv-x="844" 
d="M666 674q77 -38 118 -107t41 -159q0 -103 -41.5 -189t-117.5 -143.5t-175 -77.5q-87 -18 -125 -47.5t-38 -61.5q0 -20 13 -31t36 -11q33 0 63 15l12 -71q-48 -23 -101 -23q-57 0 -91.5 26.5t-34.5 72.5q0 76 82 128q-121 22 -188.5 101t-67.5 196q0 119 54.5 214.5
t153 150.5t225.5 55q105 0 182 -38zM541 163q58 37 89 99t31 137q0 80 -50 127.5t-141 47.5q-77 0 -135 -37t-89 -99t-31 -137q0 -80 50 -127.5t141 -47.5q77 0 135 37z" />
    <glyph glyph-name="uni01EB" unicode="&#x1eb;" horiz-adv-x="654" 
d="M497 516q61 -30 94.5 -84.5t33.5 -126.5q0 -111 -62.5 -191t-172.5 -112q-79 -23 -113.5 -52.5t-34.5 -60.5q0 -20 13 -31t36 -11q33 0 63 15l12 -71q-48 -23 -101 -23q-57 0 -91.5 26.5t-34.5 72.5q0 77 88 132q-92 18 -145 80.5t-53 153.5q0 89 41.5 160t116 112
t167.5 41q82 0 143 -30zM391 143.5q36 22.5 56 62.5t20 92q0 55 -32 87t-90 32q-46 0 -82 -22.5t-56 -62.5t-20 -92q0 -55 32.5 -87t90.5 -32q45 0 81 22.5z" />
    <glyph glyph-name="uni01EE" unicode="&#x1ee;" horiz-adv-x="616" 
d="M610 595l-196 -183q73 -17 113 -63t40 -114q0 -71 -41.5 -127t-115.5 -88t-168 -32q-77 0 -144 21t-112 60l78 119q35 -30 84.5 -47t104.5 -17q72 0 111 26.5t39 74.5q0 38 -28.5 56.5t-86.5 18.5h-74l21 107l174 163h-295l26 130h490zM609 901l-151 -144h-138l-112 144
h111l77 -75l97 75h116z" />
    <glyph glyph-name="uni01EF" unicode="&#x1ef;" horiz-adv-x="557" 
d="M535 434l-206 -197q78 -14 119 -60.5t41 -120.5q0 -80 -45 -138.5t-119.5 -89.5t-160.5 -31q-70 0 -136 21t-120 62l73 119q40 -32 91 -49t101 -17q66 0 110 29t44 84q0 40 -27.5 62.5t-84.5 22.5h-77l19 103l182 174h-300l26 130h488zM565 751l-151 -144h-138l-112 144
h111l77 -75l97 75h116z" />
    <glyph glyph-name="Aringacute" unicode="&#x1fa;" horiz-adv-x="766" 
d="M527 150h-326l-91 -150h-173l453 700h160l172 -700h-162zM500 273l-59 270l-165 -270h224zM611 938q17 -29 17 -63q0 -51 -36 -86t-89 -35q-52 0 -88 35t-36 86q0 50 36 85.5t88 35.5q27 0 52 -11l87 91l77 -60zM546.5 831.5q17.5 17.5 17.5 43.5t-17.5 43.5t-43.5 17.5
q-25 0 -42.5 -17.5t-17.5 -43.5t17 -43.5t43 -17.5t43.5 17.5z" />
    <glyph glyph-name="aringacute" unicode="&#x1fb;" horiz-adv-x="690" 
d="M672 538l-107 -538h-148l10 53q-67 -61 -165 -61q-63 0 -116 29t-84.5 83.5t-31.5 128.5q0 89 39.5 160.5t107.5 112t150 40.5q124 0 175 -81l14 73h156zM392 143.5q36 22.5 56 62.5t20 92q0 55 -32.5 87t-90.5 32q-46 0 -82 -22.5t-56 -62.5t-20 -92q0 -55 32.5 -87
t90.5 -32q46 0 82 22.5zM545 776q17 -29 17 -63q0 -51 -36 -86t-89 -35q-52 0 -88 35t-36 86q0 50 36 85.5t88 35.5q27 0 52 -11l87 91l77 -60zM480.5 669.5q17.5 17.5 17.5 43.5t-17.5 43.5t-43.5 17.5q-25 0 -42.5 -17.5t-17.5 -43.5t17 -43.5t43 -17.5t43.5 17.5z" />
    <glyph glyph-name="AEacute" unicode="&#x1fc;" horiz-adv-x="1082" 
d="M715 570l-30 -152h325l-25 -126h-326l-32 -162h382l-26 -130h-542l30 150h-246l-111 -150h-178l530 700h643l-26 -130h-368zM496 273l59 298h-18l-221 -298h180zM729 901h172l-196 -144h-126z" />
    <glyph glyph-name="aeacute" unicode="&#x1fd;" horiz-adv-x="995" 
d="M960 226h-417q4 -56 38.5 -82.5t101.5 -26.5q90 0 144 50l68 -103q-47 -36 -105.5 -54t-122.5 -18q-68 0 -125.5 23.5t-92.5 71.5q-39 -51 -94 -73t-126 -22q-99 0 -156 42.5t-57 111.5q0 80 63.5 125.5t182.5 45.5h138q2 16 2 22q0 40 -28.5 61t-83.5 21
q-42 0 -83.5 -11.5t-72.5 -31.5l-41 111q44 27 105 42t119 15q141 0 195 -74q80 74 198 74q78 0 137 -29t91 -83t32 -125q0 -40 -10 -83zM609 399q-38 -30 -55 -82h269q1 52 -32.5 82t-88.5 30t-93 -30zM333 122.5q32 25.5 43 78.5l5 25h-116q-46 0 -71.5 -18.5t-25.5 -50.5
q0 -28 21.5 -44t63.5 -16q48 0 80 25.5zM591 750h172l-196 -144h-126z" />
    <glyph glyph-name="Oslashacute" unicode="&#x1fe;" horiz-adv-x="844" 
d="M210 26q-77 38 -118 107t-41 159q0 119 54.5 214.5t153 150.5t225.5 55q105 0 182 -38t118 -107t41 -159q0 -119 -54.5 -214.5t-153 -150.5t-225.5 -55q-105 0 -182 38zM541 163q58 37 89 99t31 137q0 80 -50 127.5t-141 47.5q-77 0 -135 -37t-89 -99t-31 -137
q0 -80 50 -127.5t141 -47.5q77 0 135 37zM766 770h108l-764 -840h-109zM576 901h172l-196 -144h-126z" />
    <glyph glyph-name="oslashacute" unicode="&#x1ff;" horiz-adv-x="654" 
d="M157.5 22q-61.5 30 -95 84.5t-33.5 126.5q0 89 42 160t116 112t167 41q82 0 143 -30t94.5 -84.5t33.5 -126.5q0 -89 -41.5 -160t-116 -112t-167.5 -41q-81 0 -142.5 30zM391 143.5q36 22.5 56 62.5t20 92q0 55 -32 87t-90 32q-46 0 -82 -22.5t-56 -62.5t-20 -92
q0 -55 32.5 -87t90.5 -32q45 0 81 22.5zM569 605h82l-571 -675h-82zM448 751h172l-196 -144h-126z" />
    <glyph glyph-name="uni0200" unicode="&#x200;" horiz-adv-x="766" 
d="M527 150h-326l-91 -150h-173l453 700h160l172 -700h-162zM500 273l-59 270l-165 -270h224zM249 901h140l44 -144h-108zM451 901h140l44 -144h-108z" />
    <glyph glyph-name="uni0201" unicode="&#x201;" horiz-adv-x="690" 
d="M672 538l-107 -538h-148l10 53q-67 -61 -165 -61q-63 0 -116 29t-84.5 83.5t-31.5 128.5q0 89 39.5 160.5t107.5 112t150 40.5q124 0 175 -81l14 73h156zM392 143.5q36 22.5 56 62.5t20 92q0 55 -32.5 87t-90.5 32q-46 0 -82 -22.5t-56 -62.5t-20 -92q0 -55 32.5 -87
t90.5 -32q46 0 82 22.5zM186 751h140l44 -144h-108zM388 751h140l44 -144h-108z" />
    <glyph glyph-name="uni0202" unicode="&#x202;" horiz-adv-x="766" 
d="M527 150h-326l-91 -150h-173l453 700h160l172 -700h-162zM500 273l-59 270l-165 -270h224zM363.5 868.5q55.5 41.5 135.5 41.5q77 0 124 -42t41 -111h-96q2 33 -19.5 52.5t-58.5 19.5t-62 -19.5t-32 -52.5h-101q13 70 68.5 111.5z" />
    <glyph glyph-name="uni0203" unicode="&#x203;" horiz-adv-x="690" 
d="M672 538l-107 -538h-148l10 53q-67 -61 -165 -61q-63 0 -116 29t-84.5 83.5t-31.5 128.5q0 89 39.5 160.5t107.5 112t150 40.5q124 0 175 -81l14 73h156zM392 143.5q36 22.5 56 62.5t20 92q0 55 -32.5 87t-90.5 32q-46 0 -82 -22.5t-56 -62.5t-20 -92q0 -55 32.5 -87
t90.5 -32q46 0 82 22.5zM300.5 718.5q55.5 41.5 135.5 41.5q77 0 124 -42t41 -111h-96q2 33 -19.5 52.5t-58.5 19.5t-62 -19.5t-32 -52.5h-101q13 70 68.5 111.5z" />
    <glyph glyph-name="uni0204" unicode="&#x204;" horiz-adv-x="671" 
d="M304 570l-30 -152h325l-25 -126h-326l-32 -162h382l-27 -130h-542l140 700h529l-27 -130h-367zM214 901h140l44 -144h-108zM416 901h140l44 -144h-108z" />
    <glyph glyph-name="uni0205" unicode="&#x205;" horiz-adv-x="628" 
d="M594 227h-412q8 -110 139 -110q41 0 78.5 13t65.5 37l65 -103q-45 -36 -103 -54t-122 -18q-83 0 -145.5 29.5t-96 84.5t-33.5 127q0 89 40.5 160.5t112.5 112t164 40.5q78 0 135.5 -29t89 -83t31.5 -125q0 -37 -9 -82zM247 399.5q-38 -29.5 -54 -81.5h267
q0 52 -32.5 81.5t-87.5 29.5t-93 -29.5zM150 750h140l44 -144h-108zM352 750h140l44 -144h-108z" />
    <glyph glyph-name="uni0206" unicode="&#x206;" horiz-adv-x="671" 
d="M304 570l-30 -152h325l-25 -126h-326l-32 -162h382l-27 -130h-542l140 700h529l-27 -130h-367zM328.5 868.5q55.5 41.5 135.5 41.5q77 0 124 -42t41 -111h-96q2 33 -19.5 52.5t-58.5 19.5t-62 -19.5t-32 -52.5h-101q13 70 68.5 111.5z" />
    <glyph glyph-name="uni0207" unicode="&#x207;" horiz-adv-x="628" 
d="M594 227h-412q8 -110 139 -110q41 0 78.5 13t65.5 37l65 -103q-45 -36 -103 -54t-122 -18q-83 0 -145.5 29.5t-96 84.5t-33.5 127q0 89 40.5 160.5t112.5 112t164 40.5q78 0 135.5 -29t89 -83t31.5 -125q0 -37 -9 -82zM247 399.5q-38 -29.5 -54 -81.5h267
q0 52 -32.5 81.5t-87.5 29.5t-93 -29.5zM264.5 717.5q55.5 41.5 135.5 41.5q77 0 124 -42t41 -111h-96q2 33 -19.5 52.5t-58.5 19.5t-62 -19.5t-32 -52.5h-101q13 70 68.5 111.5z" />
    <glyph glyph-name="uni0208" unicode="&#x208;" horiz-adv-x="328" 
d="M169 700h163l-140 -700h-163zM30 901h140l44 -144h-108zM232 901h140l44 -144h-108z" />
    <glyph glyph-name="uni0209" unicode="&#x209;" horiz-adv-x="300" 
d="M126 538h155l-107 -538h-155zM-13 751h140l44 -144h-108zM189 751h140l44 -144h-108z" />
    <glyph glyph-name="uni020A" unicode="&#x20a;" horiz-adv-x="328" 
d="M169 700h163l-140 -700h-163zM144.5 868.5q55.5 41.5 135.5 41.5q77 0 124 -42t41 -111h-96q2 33 -19.5 52.5t-58.5 19.5t-62 -19.5t-32 -52.5h-101q13 70 68.5 111.5z" />
    <glyph glyph-name="uni020B" unicode="&#x20b;" horiz-adv-x="300" 
d="M126 538h155l-107 -538h-155zM115.5 719q46.5 40 120.5 40q64 0 103.5 -35t39.5 -94q0 -7 -2 -23h-92q1 5 1 14q0 27 -15 42.5t-43 15.5q-64 0 -73 -72h-97q11 72 57.5 112z" />
    <glyph glyph-name="uni020C" unicode="&#x20c;" horiz-adv-x="844" 
d="M210 26q-77 38 -118 107t-41 159q0 119 54.5 214.5t153 150.5t225.5 55q105 0 182 -38t118 -107t41 -159q0 -119 -54.5 -214.5t-153 -150.5t-225.5 -55q-105 0 -182 38zM541 163q58 37 89 99t31 137q0 80 -50 127.5t-141 47.5q-77 0 -135 -37t-89 -99t-31 -137
q0 -80 50 -127.5t141 -47.5q77 0 135 37zM288 901h140l44 -144h-108zM490 901h140l44 -144h-108z" />
    <glyph glyph-name="uni020D" unicode="&#x20d;" horiz-adv-x="654" 
d="M157.5 22q-61.5 30 -95 84.5t-33.5 126.5q0 89 42 160t116 112t167 41q82 0 143 -30t94.5 -84.5t33.5 -126.5q0 -89 -41.5 -160t-116 -112t-167.5 -41q-81 0 -142.5 30zM391 143.5q36 22.5 56 62.5t20 92q0 55 -32 87t-90 32q-46 0 -82 -22.5t-56 -62.5t-20 -92
q0 -55 32.5 -87t90.5 -32q45 0 81 22.5zM161 751h140l44 -144h-108zM363 751h140l44 -144h-108z" />
    <glyph glyph-name="uni020E" unicode="&#x20e;" horiz-adv-x="844" 
d="M210 26q-77 38 -118 107t-41 159q0 119 54.5 214.5t153 150.5t225.5 55q105 0 182 -38t118 -107t41 -159q0 -119 -54.5 -214.5t-153 -150.5t-225.5 -55q-105 0 -182 38zM541 163q58 37 89 99t31 137q0 80 -50 127.5t-141 47.5q-77 0 -135 -37t-89 -99t-31 -137
q0 -80 50 -127.5t141 -47.5q77 0 135 37zM402.5 868.5q55.5 41.5 135.5 41.5q77 0 124 -42t41 -111h-96q2 33 -19.5 52.5t-58.5 19.5t-62 -19.5t-32 -52.5h-101q13 70 68.5 111.5z" />
    <glyph glyph-name="uni020F" unicode="&#x20f;" horiz-adv-x="654" 
d="M157.5 22q-61.5 30 -95 84.5t-33.5 126.5q0 89 42 160t116 112t167 41q82 0 143 -30t94.5 -84.5t33.5 -126.5q0 -89 -41.5 -160t-116 -112t-167.5 -41q-81 0 -142.5 30zM391 143.5q36 22.5 56 62.5t20 92q0 55 -32 87t-90 32q-46 0 -82 -22.5t-56 -62.5t-20 -92
q0 -55 32.5 -87t90.5 -32q45 0 81 22.5zM275.5 718.5q55.5 41.5 135.5 41.5q77 0 124 -42t41 -111h-96q2 33 -19.5 52.5t-58.5 19.5t-62 -19.5t-32 -52.5h-101q13 70 68.5 111.5z" />
    <glyph glyph-name="uni0210" unicode="&#x210;" horiz-adv-x="735" 
d="M675 315q-53 -70 -147 -99l122 -216h-171l-110 196h-138l-39 -196h-163l140 700h285q130 0 202 -57t72 -160q0 -98 -53 -168zM519.5 362q44.5 37 44.5 106q0 50 -34 75t-97 25h-128l-49 -243h138q81 0 125.5 37zM240 901h140l44 -144h-108zM442 901h140l44 -144h-108z
" />
    <glyph glyph-name="uni0211" unicode="&#x211;" horiz-adv-x="431" 
d="M345.5 529q49.5 17 116.5 17l-28 -144q-28 2 -36 2q-71 0 -113.5 -35t-57.5 -109l-52 -260h-156l107 538h148l-13 -64q35 38 84.5 55zM75 751h140l44 -144h-108zM277 751h140l44 -144h-108z" />
    <glyph glyph-name="uni0212" unicode="&#x212;" horiz-adv-x="735" 
d="M675 315q-53 -70 -147 -99l122 -216h-171l-110 196h-138l-39 -196h-163l140 700h285q130 0 202 -57t72 -160q0 -98 -53 -168zM519.5 362q44.5 37 44.5 106q0 50 -34 75t-97 25h-128l-49 -243h138q81 0 125.5 37zM354.5 868.5q55.5 41.5 135.5 41.5q77 0 124 -42t41 -111
h-96q2 33 -19.5 52.5t-58.5 19.5t-62 -19.5t-32 -52.5h-101q13 70 68.5 111.5z" />
    <glyph glyph-name="uni0213" unicode="&#x213;" horiz-adv-x="431" 
d="M345.5 529q49.5 17 116.5 17l-28 -144q-28 2 -36 2q-71 0 -113.5 -35t-57.5 -109l-52 -260h-156l107 538h148l-13 -64q35 38 84.5 55zM189.5 718.5q55.5 41.5 135.5 41.5q77 0 124 -42t41 -111h-96q2 33 -19.5 52.5t-58.5 19.5t-62 -19.5t-32 -52.5h-101
q13 70 68.5 111.5z" />
    <glyph glyph-name="uni0214" unicode="&#x214;" horiz-adv-x="788" 
d="M152 53.5q-75 65.5 -75 179.5q0 33 8 75l78 392h163l-78 -389q-6 -33 -6 -59q0 -63 34.5 -94.5t100.5 -31.5q74 0 118 44t64 141l78 389h159l-79 -399q-64 -313 -358 -313q-132 0 -207 65.5zM261 901h140l44 -144h-108zM463 901h140l44 -144h-108z" />
    <glyph glyph-name="uni0215" unicode="&#x215;" horiz-adv-x="687" 
d="M668 538l-107 -538h-148l11 58q-35 -33 -80 -49.5t-95 -16.5q-88 0 -140.5 48t-52.5 135q0 33 7 65l59 298h156l-57 -288q-4 -19 -4 -39q0 -84 90 -84q59 0 97.5 34.5t52.5 103.5l55 273h156zM178 751h140l44 -144h-108zM380 751h140l44 -144h-108z" />
    <glyph glyph-name="uni0216" unicode="&#x216;" horiz-adv-x="788" 
d="M152 53.5q-75 65.5 -75 179.5q0 33 8 75l78 392h163l-78 -389q-6 -33 -6 -59q0 -63 34.5 -94.5t100.5 -31.5q74 0 118 44t64 141l78 389h159l-79 -399q-64 -313 -358 -313q-132 0 -207 65.5zM375.5 868.5q55.5 41.5 135.5 41.5q77 0 124 -42t41 -111h-96q2 33 -19.5 52.5
t-58.5 19.5t-62 -19.5t-32 -52.5h-101q13 70 68.5 111.5z" />
    <glyph glyph-name="uni0217" unicode="&#x217;" horiz-adv-x="687" 
d="M668 538l-107 -538h-148l11 58q-35 -33 -80 -49.5t-95 -16.5q-88 0 -140.5 48t-52.5 135q0 33 7 65l59 298h156l-57 -288q-4 -19 -4 -39q0 -84 90 -84q59 0 97.5 34.5t52.5 103.5l55 273h156zM292.5 718.5q55.5 41.5 135.5 41.5q77 0 124 -42t41 -111h-96
q2 33 -19.5 52.5t-58.5 19.5t-62 -19.5t-32 -52.5h-101q13 70 68.5 111.5z" />
    <glyph glyph-name="Scommaaccent" unicode="&#x218;" horiz-adv-x="638" 
d="M114 10q-76 22 -122 56l66 125q48 -35 108 -54t123 -19q67 0 106 22t39 60q0 31 -31 47.5t-99 35.5q-68 20 -111 38.5t-74.5 55.5t-31.5 98q0 71 39.5 125t112 83t168.5 29q71 0 134 -15.5t108 -44.5l-61 -124q-39 27 -88 40.5t-102 13.5q-69 0 -109 -24t-40 -62
q0 -23 17 -38.5t43 -25t73 -22.5q67 -18 110 -36.5t73.5 -54t30.5 -93.5q0 -72 -40 -125.5t-113 -83t-170 -29.5q-83 0 -159 22zM295.5 -88q17.5 -15 17.5 -38q0 -16 -6.5 -30.5t-24.5 -40.5l-49 -69h-71l41 81q-30 12 -30 44q0 30 19 49t54 19q32 0 49.5 -15z" />
    <glyph glyph-name="scommaaccent" unicode="&#x219;" horiz-adv-x="531" 
d="M82.5 7.5q-62.5 15.5 -97.5 40.5l60 113q35 -23 85.5 -37t101.5 -14q53 0 79 13.5t26 38.5q0 20 -23 29t-74 19q-58 11 -95.5 24t-65 42.5t-27.5 80.5q0 89 74.5 139t195.5 50q56 0 109 -12t90 -33l-56 -114q-66 41 -159 41q-51 0 -77.5 -15t-26.5 -38q0 -21 23 -30.5
t77 -20.5q57 -11 93.5 -23.5t63.5 -41.5t27 -79q0 -90 -75.5 -139t-195.5 -49q-70 0 -132.5 15.5zM232.5 -88q17.5 -15 17.5 -38q0 -16 -6.5 -30.5t-24.5 -40.5l-49 -69h-71l41 81q-30 12 -30 44q0 30 19 49t54 19q32 0 49.5 -15z" />
    <glyph glyph-name="uni021A" unicode="&#x21a;" horiz-adv-x="618" 
d="M287 568h-224l27 132h610l-27 -132h-223l-114 -568h-162zM280.5 -88q17.5 -15 17.5 -38q0 -16 -6.5 -30.5t-24.5 -40.5l-49 -69h-71l41 81q-30 12 -30 44q0 30 19 49t54 19q32 0 49.5 -15z" />
    <glyph glyph-name="uni021B" unicode="&#x21b;" horiz-adv-x="435" 
d="M231 190q-2 -8 -2 -22q0 -52 57 -52q31 0 63 19l23 -111q-52 -32 -134 -32q-76 0 -122 40t-46 110q0 20 5 47l43 217h-83l24 120h83l26 131h156l-26 -131h134l-24 -120h-134zM234.5 -88q17.5 -15 17.5 -38q0 -16 -6.5 -30.5t-24.5 -40.5l-49 -69h-71l41 81q-30 12 -30 44
q0 30 19 49t54 19q32 0 49.5 -15z" />
    <glyph glyph-name="uni021E" unicode="&#x21e;" horiz-adv-x="808" 
d="M811 700l-140 -700h-162l57 285h-317l-57 -285h-163l140 700h163l-55 -275h317l55 275h162zM724 901l-151 -144h-138l-112 144h111l77 -75l97 75h116z" />
    <glyph glyph-name="uni021F" unicode="&#x21f;" horiz-adv-x="691" 
d="M582 498q53 -48 53 -136q0 -32 -7 -64l-60 -298h-156l58 288q4 17 4 37q0 42 -23 64t-69 22q-60 0 -99.5 -34.5t-53.5 -103.5l-54 -273h-156l148 742h156l-50 -253q69 57 166 57q90 0 143 -48zM482 955l-151 -144h-138l-112 144h111l77 -75l97 75h116z" />
    <glyph glyph-name="uni022A" unicode="&#x22a;" horiz-adv-x="844" 
d="M210 26q-77 38 -118 107t-41 159q0 119 54.5 214.5t153 150.5t225.5 55q105 0 182 -38t118 -107t41 -159q0 -119 -54.5 -214.5t-153 -150.5t-225.5 -55q-105 0 -182 38zM541 163q58 37 89 99t31 137q0 80 -50 127.5t-141 47.5q-77 0 -135 -37t-89 -99t-31 -137
q0 -80 50 -127.5t141 -47.5q77 0 135 37zM386.5 778q-17.5 16 -17.5 43q0 32 20.5 52.5t49.5 20.5q27 0 44.5 -17t17.5 -44q0 -31 -20.5 -51t-49.5 -20q-27 0 -44.5 16zM581.5 778q-17.5 16 -17.5 43q0 31 21 52t50 21q27 0 44.5 -17t17.5 -44q0 -31 -21 -51t-50 -20
q-27 0 -44.5 16zM385 1017h370l-16 -83h-370z" />
    <glyph glyph-name="uni022B" unicode="&#x22b;" horiz-adv-x="654" 
d="M157.5 22q-61.5 30 -95 84.5t-33.5 126.5q0 89 42 160t116 112t167 41q82 0 143 -30t94.5 -84.5t33.5 -126.5q0 -89 -41.5 -160t-116 -112t-167.5 -41q-81 0 -142.5 30zM391 143.5q36 22.5 56 62.5t20 92q0 55 -32 87t-90 32q-46 0 -82 -22.5t-56 -62.5t-20 -92
q0 -55 32.5 -87t90.5 -32q45 0 81 22.5zM259.5 628q-17.5 16 -17.5 43q0 32 20.5 52.5t49.5 20.5q27 0 44.5 -17t17.5 -44q0 -31 -20.5 -51t-49.5 -20q-27 0 -44.5 16zM454.5 628q-17.5 16 -17.5 43q0 31 21 52t50 21q27 0 44.5 -17t17.5 -44q0 -31 -21 -51t-50 -20
q-27 0 -44.5 16zM258 867h370l-16 -83h-370z" />
    <glyph glyph-name="uni022C" unicode="&#x22c;" horiz-adv-x="844" 
d="M210 26q-77 38 -118 107t-41 159q0 119 54.5 214.5t153 150.5t225.5 55q105 0 182 -38t118 -107t41 -159q0 -119 -54.5 -214.5t-153 -150.5t-225.5 -55q-105 0 -182 38zM541 163q58 37 89 99t31 137q0 80 -50 127.5t-141 47.5q-77 0 -135 -37t-89 -99t-31 -137
q0 -80 50 -127.5t141 -47.5q77 0 135 37zM551.5 763.5q-19.5 8.5 -41.5 23.5q-27 20 -44 20q-20 0 -33 -12.5t-17 -33.5h-81q9 60 43.5 92.5t87.5 32.5q26 0 45.5 -8.5t40.5 -23.5q15 -10 25 -15t21 -5q20 0 33.5 12.5t18.5 32.5h78q-9 -58 -43 -91t-88 -33q-26 0 -45.5 8.5
zM385 1017h370l-16 -83h-370z" />
    <glyph glyph-name="uni022D" unicode="&#x22d;" horiz-adv-x="654" 
d="M157.5 22q-61.5 30 -95 84.5t-33.5 126.5q0 89 42 160t116 112t167 41q82 0 143 -30t94.5 -84.5t33.5 -126.5q0 -89 -41.5 -160t-116 -112t-167.5 -41q-81 0 -142.5 30zM391 143.5q36 22.5 56 62.5t20 92q0 55 -32 87t-90 32q-46 0 -82 -22.5t-56 -62.5t-20 -92
q0 -55 32.5 -87t90.5 -32q45 0 81 22.5zM424.5 613.5q-19.5 8.5 -41.5 23.5q-27 20 -44 20q-20 0 -33 -12.5t-17 -33.5h-81q9 60 43.5 92.5t87.5 32.5q26 0 45.5 -8.5t40.5 -23.5q15 -10 25 -15t21 -5q20 0 33.5 12.5t18.5 32.5h78q-9 -58 -43 -91t-88 -33q-26 0 -45.5 8.5z
M258 867h370l-16 -83h-370z" />
    <glyph glyph-name="uni0230" unicode="&#x230;" horiz-adv-x="844" 
d="M210 26q-77 38 -118 107t-41 159q0 119 54.5 214.5t153 150.5t225.5 55q105 0 182 -38t118 -107t41 -159q0 -119 -54.5 -214.5t-153 -150.5t-225.5 -55q-105 0 -182 38zM541 163q58 37 89 99t31 137q0 80 -50 127.5t-141 47.5q-77 0 -135 -37t-89 -99t-31 -137
q0 -80 50 -127.5t141 -47.5q77 0 135 37zM482 779q-18 17 -18 46q0 33 21.5 54t52.5 21q28 0 46.5 -17.5t18.5 -46.5q0 -32 -22 -53t-53 -21q-28 0 -46 17zM387 1024h370l-16 -83h-370z" />
    <glyph glyph-name="uni0231" unicode="&#x231;" horiz-adv-x="654" 
d="M157.5 22q-61.5 30 -95 84.5t-33.5 126.5q0 89 42 160t116 112t167 41q82 0 143 -30t94.5 -84.5t33.5 -126.5q0 -89 -41.5 -160t-116 -112t-167.5 -41q-81 0 -142.5 30zM391 143.5q36 22.5 56 62.5t20 92q0 55 -32 87t-90 32q-46 0 -82 -22.5t-56 -62.5t-20 -92
q0 -55 32.5 -87t90.5 -32q45 0 81 22.5zM355 629q-18 17 -18 46q0 33 21.5 54t52.5 21q28 0 46.5 -17.5t18.5 -46.5q0 -32 -22 -53t-53 -21q-28 0 -46 17zM260 874h370l-16 -83h-370z" />
    <glyph glyph-name="uni0232" unicode="&#x232;" horiz-adv-x="676" 
d="M413 243l-48 -243h-162l49 250l-180 450h162l125 -312l251 312h167zM273 873h369l-17 -88h-369z" />
    <glyph glyph-name="uni0233" unicode="&#x233;" horiz-adv-x="598" 
d="M660 538l-358 -574q-58 -94 -112.5 -130t-133.5 -36q-42 0 -82.5 13t-63.5 34l72 112q36 -33 86 -33q30 0 52 15t45 51l5 9l-124 539h156l80 -366l224 366h154zM193 723h369l-17 -88h-369z" />
    <glyph glyph-name="uni0237" unicode="&#x237;" horiz-adv-x="306" 
d="M-180 -172l62 113q27 -19 65 -19q32 0 50.5 19t26.5 60l108 537h156l-107 -533q-41 -207 -232 -207q-78 0 -129 30z" />
    <glyph glyph-name="uni0259" unicode="&#x259;" horiz-adv-x="628" 
d="M34 311h412q-8 110 -139 110q-41 0 -78.5 -13t-65.5 -37l-65 103q45 36 103 54t122 18q83 0 145.5 -29.5t96 -84.5t33.5 -127q0 -89 -40.5 -160.5t-112.5 -112t-164 -40.5q-78 0 -135.5 29t-89 83t-31.5 125q0 37 9 82zM381 138.5q38 29.5 54 81.5h-267q0 -52 32.5 -81.5
t87.5 -29.5t93 29.5z" />
    <glyph glyph-name="uni0292" unicode="&#x292;" horiz-adv-x="557" 
d="M535 434l-206 -197q78 -14 119 -60.5t41 -120.5q0 -80 -45 -138.5t-119.5 -89.5t-160.5 -31q-70 0 -136 21t-120 62l73 119q40 -32 91 -49t101 -17q66 0 110 29t44 84q0 40 -27.5 62.5t-84.5 22.5h-77l19 103l182 174h-300l26 130h488z" />
    <glyph glyph-name="uni02B9" unicode="&#x2b9;" horiz-adv-x="230" 
d="M136 700h132l-67 -284h-112z" />
    <glyph glyph-name="uni02BA" unicode="&#x2ba;" horiz-adv-x="437" 
d="M342 700h133l-67 -284h-112zM136 700h133l-67 -284h-112z" />
    <glyph glyph-name="uni02BB" unicode="&#x2bb;" horiz-adv-x="287" 
d="M273.5 719.5q10.5 -19.5 10.5 -43.5q0 -46 -30 -75t-74 -29q-40 0 -65.5 25t-25.5 65q0 21 7.5 40t26.5 49l100 161h98l-76 -161q18 -12 28.5 -31.5z" />
    <glyph glyph-name="uni02BC" unicode="&#x2bc;" horiz-adv-x="188" 
d="M130 700h102l-75 -262h-82z" />
    <glyph glyph-name="uni02BE" unicode="&#x2be;" horiz-adv-x="600" 
d="M388 655q26 0 43 17.5t17 43.5q0 22 -13 37.5t-34 20.5l11 60q44 -8 72.5 -41t28.5 -77q0 -51 -35.5 -86.5t-89.5 -35.5q-15 0 -23 2l12 60q3 -1 11 -1z" />
    <glyph glyph-name="uni02BF" unicode="&#x2bf;" horiz-adv-x="600" 
d="M389 773q-26 0 -43 -17t-17 -43q0 -23 13 -38.5t34 -20.5l-11 -60q-44 8 -73 41.5t-29 77.5q0 50 36.5 85.5t89.5 35.5q14 0 23 -2l-12 -60q-4 1 -11 1z" />
    <glyph glyph-name="circumflex" unicode="&#x2c6;" horiz-adv-x="600" 
d="M458 607l-77 75l-97 -75h-117l152 144h137l113 -144h-111z" />
    <glyph glyph-name="caron" unicode="&#x2c7;" horiz-adv-x="600" 
d="M591 751l-151 -144h-138l-112 144h111l77 -75l97 75h116z" />
    <glyph glyph-name="uni02C8" unicode="&#x2c8;" horiz-adv-x="186" 
d="M128 700h103l-40 -196h-102z" />
    <glyph glyph-name="uni02C9" unicode="&#x2c9;" horiz-adv-x="600" 
d="M206 723h370l-17 -88h-370z" />
    <glyph glyph-name="uni02CA" unicode="&#x2ca;" horiz-adv-x="600" 
d="M425 751h172l-196 -144h-126z" />
    <glyph glyph-name="uni02CB" unicode="&#x2cb;" horiz-adv-x="600" 
d="M185 751h167l106 -144h-121z" />
    <glyph glyph-name="uni02CC" unicode="&#x2cc;" horiz-adv-x="189" 
d="M-18 -30h105l-39 -197h-105z" />
    <glyph glyph-name="breve" unicode="&#x2d8;" horiz-adv-x="600" 
d="M258 636.5q-47 37.5 -47 99.5q0 10 1 15h95q-1 -32 20.5 -51.5t58.5 -19.5t62 19.5t31 51.5h101q-13 -70 -68 -111t-135 -41q-72 0 -119 37.5z" />
    <glyph glyph-name="dotaccent" unicode="&#x2d9;" horiz-adv-x="600" 
d="M323 633q-22 21 -22 53q0 42 26 68.5t65 26.5q35 0 56.5 -21t21.5 -54q0 -41 -26 -67.5t-64 -26.5q-35 0 -57 21z" />
    <glyph glyph-name="ring" unicode="&#x2da;" horiz-adv-x="600" 
d="M300 627q-36 35 -36 86q0 50 36 85.5t88 35.5q53 0 89 -35t36 -86t-36 -86t-89 -35q-52 0 -88 35zM431.5 669.5q17.5 17.5 17.5 43.5t-17.5 43.5t-43.5 17.5q-25 0 -42.5 -17.5t-17.5 -43.5t17 -43.5t43 -17.5t43.5 17.5z" />
    <glyph glyph-name="ogonek" unicode="&#x2db;" horiz-adv-x="600" 
d="M40 -205.5q-34 26.5 -34 72.5q0 57 48 101t136 75l57 -43q-138 -49 -138 -111q0 -20 13 -31t35 -11q34 0 64 15l11 -71q-48 -23 -101 -23q-57 0 -91 26.5z" />
    <glyph glyph-name="tilde" unicode="&#x2dc;" horiz-adv-x="600" 
d="M405.5 614q-19.5 10 -42.5 28q-19 14 -29 19.5t-22 5.5q-20 0 -34 -15t-19 -41h-79q11 71 46 108.5t87 37.5q26 0 45.5 -10t42.5 -28q18 -14 28.5 -20t22.5 -6q21 0 34.5 14.5t18.5 39.5h79q-11 -68 -45.5 -105.5t-86.5 -37.5q-27 0 -46.5 10z" />
    <glyph glyph-name="hungarumlaut" unicode="&#x2dd;" horiz-adv-x="600" 
d="M296 751h150l-120 -144h-118zM498 751h150l-121 -144h-116z" />
    <glyph glyph-name="gravecomb" unicode="&#x300;" 
d="M-415 751h167l106 -144h-121z" />
    <glyph glyph-name="acutecomb" unicode="&#x301;" 
d="M-175 751h172l-196 -144h-126z" />
    <glyph glyph-name="uni0302" unicode="&#x302;" 
d="M-142 607l-77 75l-97 -75h-117l152 144h137l113 -144h-111z" />
    <glyph glyph-name="tildecomb" unicode="&#x303;" 
d="M-194.5 614q-19.5 10 -42.5 28q-19 14 -29 19.5t-22 5.5q-20 0 -34 -15t-19 -41h-79q11 71 46 108.5t87 37.5q26 0 45.5 -10t42.5 -28q18 -14 28.5 -20t22.5 -6q21 0 34.5 14.5t18.5 39.5h79q-11 -68 -45.5 -105.5t-86.5 -37.5q-27 0 -46.5 10z" />
    <glyph glyph-name="uni0304" unicode="&#x304;" 
d="M-394 723h369l-17 -88h-369z" />
    <glyph glyph-name="uni0306" unicode="&#x306;" 
d="M-342 636.5q-47 37.5 -47 99.5q0 10 1 15h95q-1 -32 20.5 -51.5t58.5 -19.5t62 19.5t31 51.5h101q-13 -70 -68 -111t-135 -41q-72 0 -119 37.5z" />
    <glyph glyph-name="uni0307" unicode="&#x307;" 
d="M-277 633q-22 21 -22 53q0 42 26 68.5t65 26.5q35 0 56.5 -21t21.5 -54q0 -41 -26 -67.5t-64 -26.5q-35 0 -57 21z" />
    <glyph glyph-name="uni0308" unicode="&#x308;" 
d="M-370.5 629q-18.5 17 -18.5 45q0 33 22 54.5t52 21.5q28 0 47 -17t19 -45q0 -33 -22.5 -54.5t-52.5 -21.5q-28 0 -46.5 17zM-167.5 629q-18.5 17 -18.5 45q0 34 21.5 55t52.5 21q28 0 46.5 -17t18.5 -45q0 -33 -22 -54.5t-52 -21.5q-28 0 -46.5 17z" />
    <glyph glyph-name="hookabovecomb" unicode="&#x309;" 
d="M-239 649q60 25 60 67q0 17 -11.5 27t-30.5 10q-30 0 -60 -20l-27 64q46 33 113 33q50 0 79 -25t29 -68q0 -92 -111 -141z" />
    <glyph glyph-name="uni030A" unicode="&#x30a;" 
d="M-300 627q-36 35 -36 86q0 50 36 85.5t88 35.5q53 0 89 -35t36 -86t-36 -86t-89 -35q-52 0 -88 35zM-168.5 669.5q17.5 17.5 17.5 43.5t-17.5 43.5t-43.5 17.5q-25 0 -42.5 -17.5t-17.5 -43.5t17 -43.5t43 -17.5t43.5 17.5z" />
    <glyph glyph-name="uni030B" unicode="&#x30b;" 
d="M-304 751h150l-120 -144h-118zM-102 751h150l-121 -144h-116z" />
    <glyph glyph-name="uni030C" unicode="&#x30c;" 
d="M-9 751l-151 -144h-138l-112 144h111l77 -75l97 75h116z" />
    <glyph glyph-name="uni030F" unicode="&#x30f;" 
d="M-463 751h140l44 -144h-108zM-261 751h140l44 -144h-108z" />
    <glyph glyph-name="uni0311" unicode="&#x311;" 
d="M-348.5 718.5q55.5 41.5 135.5 41.5q77 0 124 -42t41 -111h-96q2 33 -19.5 52.5t-58.5 19.5t-62 -19.5t-32 -52.5h-101q13 70 68.5 111.5z" />
    <glyph glyph-name="uni0312" unicode="&#x312;" 
d="M-142 667q0 -30 -22 -49t-63 -19q-36 0 -55.5 15t-19.5 39q0 15 7 29.5t27 40.5l64 90h84l-55 -102q33 -12 33 -44z" />
    <glyph glyph-name="uni031B" unicode="&#x31b;" 
d="M-270 538h28q27 0 43.5 17.5t16.5 45.5q0 35 -20 60l92 34q32 -44 32 -100q0 -74 -46 -117.5t-122 -43.5h-24v104z" />
    <glyph glyph-name="dotbelowcomb" unicode="&#x323;" 
d="M-434.5 -193q-17.5 17 -17.5 45q0 31 23 53t53 22q27 0 45.5 -17t18.5 -43q0 -35 -21.5 -56t-54.5 -21q-29 0 -46.5 17z" />
    <glyph glyph-name="uni0324" unicode="&#x324;" 
d="M-526.5 -187.5q-17.5 16.5 -17.5 42.5q0 31 21 51.5t50 20.5q26 0 44.5 -16.5t18.5 -41.5q0 -34 -20.5 -53.5t-51.5 -19.5q-27 0 -44.5 16.5zM-335.5 -187.5q-17.5 16.5 -17.5 42.5q0 31 21.5 51.5t50.5 20.5q26 0 44 -16.5t18 -41.5q0 -33 -20.5 -53t-50.5 -20
q-28 0 -45.5 16.5z" />
    <glyph glyph-name="uni0326" unicode="&#x326;" 
d="M-327.5 -88q17.5 -15 17.5 -38q0 -16 -6.5 -30.5t-24.5 -40.5l-49 -69h-71l41 81q-30 12 -30 44q0 30 19 49t54 19q32 0 49.5 -15z" />
    <glyph glyph-name="uni0327" unicode="&#x327;" 
d="M-519 -211l34 67q30 -15 67 -15q27 0 40.5 9t14.5 24q3 28 -43 28h-35l48 106h83l-25 -58q33 -4 51.5 -23.5t18.5 -45.5q0 -53 -43.5 -83t-116.5 -30q-55 0 -94 21z" />
    <glyph glyph-name="uni0328" unicode="&#x328;" 
d="M-560 -205.5q-34 26.5 -34 72.5q0 57 48 101t136 75l57 -43q-138 -49 -138 -111q0 -20 13 -31t35 -11q34 0 64 15l11 -71q-48 -23 -101 -23q-57 0 -91 26.5z" />
    <glyph glyph-name="uni032E" unicode="&#x32e;" 
d="M-505 -180.5q-48 36.5 -48 92.5q0 9 1 14h95q-1 -31 20 -49t59 -18q37 0 62 18t31 49h100q-12 -66 -66.5 -104.5t-130.5 -38.5q-75 0 -123 36.5z" />
    <glyph glyph-name="uni0331" unicode="&#x331;" 
d="M-558 -95h370l-16 -87h-370z" />
    <glyph glyph-name="uni0335" unicode="&#x335;" 
d="M-463 481h411l-17 -90h-412z" />
    <glyph glyph-name="uni0336" unicode="&#x336;" 
d="M-839 489h834l-21 -108h-833z" />
    <glyph glyph-name="uni0337" unicode="&#x337;" 
d="M-442 311l373 244l49 -80l-373 -244z" />
    <glyph glyph-name="uni0338" unicode="&#x338;" 
d="M-71 605h82l-571 -675h-82z" />
    <glyph glyph-name="uni0394" unicode="&#x394;" horiz-adv-x="766" 
d="M722 0h-785l452 700h160zM185 132h353l-95 415z" />
    <glyph glyph-name="uni03A9" unicode="&#x3a9;" horiz-adv-x="889" 
d="M-18 132h169q-36 40 -53 88.5t-17 109.5q0 112 56 199t154.5 135t219.5 48q97 0 174.5 -34.5t122 -99t44.5 -151.5q0 -92 -43 -169.5t-110 -125.5h153l-26 -132h-366l24 123q90 37 146 112t56 171q0 80 -52.5 124t-139.5 44q-77 0 -134.5 -32.5t-88.5 -90t-31 -131.5
q0 -132 107 -197l-25 -123h-366z" />
    <glyph glyph-name="uni03BC" unicode="&#x3bc;" horiz-adv-x="690" 
d="M672 538l-107 -538h-141l12 60q-31 -34 -69.5 -51t-78.5 -17q-69 0 -108 33l-44 -219h-156l146 732h156l-57 -288q-4 -19 -4 -39q0 -84 91 -84q58 0 96.5 34.5t52.5 103.5l55 273h156z" />
    <glyph glyph-name="pi" unicode="&#x3c0;" horiz-adv-x="728" 
d="M747 422h-124l-85 -422h-140l84 422h-95l-130 -422h-141l131 422h-24q-46 0 -70 -21.5t-24 -61.5q0 -24 12 -53l-117 -31q-20 34 -20 85q0 91 62.5 144.5t170.5 53.5h533z" />
    <glyph glyph-name="uni0400" unicode="&#x400;" horiz-adv-x="673" 
d="M308 570l-30 -152h325l-25 -126h-326l-32 -162h382l-27 -130h-542l140 700h529l-27 -130h-367zM266 901h167l106 -144h-121z" />
    <glyph glyph-name="uni0401" unicode="&#x401;" horiz-adv-x="673" 
d="M308 570l-30 -152h325l-25 -126h-326l-32 -162h382l-27 -130h-542l140 700h529l-27 -130h-367zM310.5 779q-18.5 17 -18.5 45q0 33 22 54.5t52 21.5q28 0 47 -17t19 -45q0 -33 -22.5 -54.5t-52.5 -21.5q-28 0 -46.5 17zM513.5 779q-18.5 17 -18.5 45q0 34 21.5 55
t52.5 21q28 0 46.5 -17t18.5 -45q0 -33 -22 -54.5t-52 -21.5q-28 0 -46.5 17z" />
    <glyph glyph-name="uni0402" unicode="&#x402;" horiz-adv-x="850" 
d="M587 435q106 0 166 -48.5t60 -138.5q0 -75 -37 -133t-101.5 -90.5t-143.5 -32.5q-38 0 -86 10l31 124q22 -5 38 -5q36 0 68 15.5t51 41.5t19 58q0 34 -25.5 52.5t-72.5 18.5q-65 0 -155 -34l-53 -273h-161l112 568h-222l27 132h636l-26 -132h-255l-31 -156q85 23 161 23z
" />
    <glyph glyph-name="uni0403" unicode="&#x403;" horiz-adv-x="595" 
d="M640 568h-335l-111 -568h-160l140 700h493zM479 901h172l-196 -144h-126z" />
    <glyph glyph-name="uni0404" unicode="&#x404;" horiz-adv-x="717" 
d="M192 25.5q-68 37.5 -104.5 105.5t-36.5 155q0 118 61 215.5t163 154t218 56.5q88 0 157.5 -31.5t110.5 -93.5l-122 -96q-57 83 -164 83q-80 0 -145 -46t-94 -120h289l-24 -124h-283q6 -73 50.5 -115.5t117.5 -42.5q107 0 196 83l84 -96q-60 -60 -142 -92.5t-173 -32.5
t-159 37.5z" />
    <glyph glyph-name="uni0405" unicode="&#x405;" horiz-adv-x="652" 
d="M123 10q-76 22 -122 56l66 125q48 -35 108 -54t123 -19q67 0 106 22t39 60q0 31 -31 47.5t-99 35.5q-68 20 -111 38.5t-74.5 55.5t-31.5 98q0 71 39.5 125t112 83t168.5 29q71 0 134 -15.5t108 -44.5l-61 -124q-39 27 -88 40.5t-102 13.5q-69 0 -109 -24t-40 -62
q0 -23 17 -38.5t43 -25t73 -22.5q67 -18 110 -36.5t73.5 -54t30.5 -93.5q0 -72 -40 -125.5t-113 -83t-170 -29.5q-83 0 -159 22z" />
    <glyph glyph-name="uni0406" unicode="&#x406;" horiz-adv-x="328" 
d="M169 700h163l-140 -700h-163z" />
    <glyph glyph-name="uni0407" unicode="&#x407;" horiz-adv-x="328" 
d="M169 700h163l-140 -700h-163zM122.5 779q-18.5 17 -18.5 45q0 33 22 54.5t52 21.5q28 0 47 -17t19 -45q0 -33 -22.5 -54.5t-52.5 -21.5q-28 0 -46.5 17zM325.5 779q-18.5 17 -18.5 45q0 34 21.5 55t52.5 21q28 0 46.5 -17t18.5 -45q0 -33 -22 -54.5t-52 -21.5
q-28 0 -46.5 17z" />
    <glyph glyph-name="uni0408" unicode="&#x408;" horiz-adv-x="568" 
d="M67 15q-58 27 -90 78l107 102q46 -74 123 -74q94 0 116 109l67 340h-245l26 130h406l-93 -462q-26 -134 -94 -192t-185 -58q-80 0 -138 27z" />
    <glyph glyph-name="uni0409" unicode="&#x409;" horiz-adv-x="1189" 
d="M797 700l-140 -700h-160l114 568h-240l-40 -169q-37 -158 -75 -245.5t-89 -126t-127 -38.5q-38 0 -80 11l37 137q12 -4 27 -4q38 0 66 27t52 88t49 168l68 284h538zM1156 279q0 -83 -42.5 -146.5t-120 -98t-180.5 -34.5h-316l140 700h160l-46 -230h172q233 0 233 -191z
M944.5 158.5q44.5 38.5 44.5 102.5q0 46 -26.5 67.5t-84.5 21.5h-151l-46 -230h146q73 0 117.5 38.5z" />
    <glyph glyph-name="uni040A" unicode="&#x40a;" horiz-adv-x="1173" 
d="M1084.5 397q55.5 -45 55.5 -127t-39.5 -143t-111.5 -94t-168 -33h-320l61 305h-308l-60 -305h-160l140 700h160l-53 -263h307l53 263h161l-52 -258h177q102 0 157.5 -45zM933 153q39 33 39 89q0 39 -27 59.5t-77 20.5h-142l-40 -202h141q67 0 106 33z" />
    <glyph glyph-name="uni040B" unicode="&#x40b;" horiz-adv-x="856" 
d="M750 377.5q57 -48.5 57 -139.5q0 -29 -8 -69l-33 -169h-161l33 160q4 20 4 41q0 88 -99 88q-61 0 -150 -38l-49 -251h-160l112 568h-221l26 132h629l-26 -132h-248l-33 -169q88 27 166 27q104 0 161 -48.5z" />
    <glyph glyph-name="uni040C" unicode="&#x40c;" horiz-adv-x="739" 
d="M508 357l164 -357h-174l-126 283h-119l-57 -283h-162l140 700h162l-57 -283h107l241 283h182zM532 901h172l-196 -144h-126z" />
    <glyph glyph-name="uni040D" unicode="&#x40d;" horiz-adv-x="821" 
d="M174 700h160l-93 -456l425 456h154l-140 -700h-160l94 455l-426 -455h-154zM324 901h167l106 -144h-121z" />
    <glyph glyph-name="uni040E" unicode="&#x40e;" horiz-adv-x="725" 
d="M805 700l-408 -559q-57 -79 -123 -118t-136 -39q-57 0 -115 26l54 119q30 -10 59 -10q34 0 63 15.5t57 48.5l12 13l-172 504h169l111 -373l267 373h162zM324.5 774.5q-43.5 31.5 -43.5 93.5q0 19 2 29h103q-1 -5 -1 -14q0 -29 19.5 -45.5t56.5 -16.5q39 0 64.5 19.5
t32.5 56.5h105q-13 -78 -65 -116t-145 -38q-85 0 -128.5 31.5z" />
    <glyph glyph-name="uni040F" unicode="&#x40f;" horiz-adv-x="808" 
d="M667 0h-242l-30 -148h-149l29 148h-241l140 700h160l-114 -568h313l113 568h161z" />
    <glyph glyph-name="uni0410" unicode="&#x410;" horiz-adv-x="799" 
d="M544 150h-326l-91 -150h-173l453 700h160l172 -700h-162zM517 273l-59 270l-165 -270h224z" />
    <glyph glyph-name="uni0411" unicode="&#x411;" horiz-adv-x="741" 
d="M174 700h564l-27 -129h-404l-28 -144h195q108 0 165.5 -47.5t57.5 -137.5q0 -75 -40 -129.5t-114.5 -83.5t-177.5 -29h-331zM380 120q70 0 110 29t40 81q0 40 -27.5 59t-85.5 19h-162l-37 -188h162z" />
    <glyph glyph-name="uni0412" unicode="&#x412;" horiz-adv-x="765" 
d="M686.5 307.5q24.5 -35.5 24.5 -86.5q0 -109 -86 -165t-229 -56h-367l140 700h338q113 0 174 -41.5t61 -118.5q0 -64 -33.5 -109.5t-91.5 -69.5q45 -18 69.5 -53.5zM305 578l-33 -165h165q64 0 99.5 25.5t35.5 73.5q0 66 -103 66h-164zM512 148q38 26 38 75q0 72 -105 72
h-196l-34 -173h191q68 0 106 26z" />
    <glyph glyph-name="uni0413" unicode="&#x413;" horiz-adv-x="595" 
d="M640 568h-335l-111 -568h-160l140 700h493z" />
    <glyph glyph-name="uni0414" unicode="&#x414;" horiz-adv-x="830" 
d="M683 132h99l-56 -277h-150l29 145h-494l-29 -145h-150l56 277h21q65 2 112.5 96t86.5 259l51 213h538zM286 253.5q-29 -80.5 -68 -121.5h305l87 436h-239l-26 -108q-30 -126 -59 -206.5z" />
    <glyph glyph-name="uni0415" unicode="&#x415;" horiz-adv-x="673" 
d="M308 570l-30 -152h325l-25 -126h-326l-32 -162h382l-27 -130h-542l140 700h529l-27 -130h-367z" />
    <glyph glyph-name="uni0416" unicode="&#x416;" horiz-adv-x="1079" 
d="M876 362l136 -362h-184l-101 282h-104l-56 -282h-159l56 282h-101l-213 -282h-192l286 371l-128 329h167l99 -283h109l57 283h159l-57 -283h104l213 283h175z" />
    <glyph glyph-name="uni0417" unicode="&#x417;" horiz-adv-x="657" 
d="M576 305q27 -38 27 -88q0 -69 -48.5 -122t-129 -82t-173.5 -29q-72 0 -142.5 19t-128.5 58l74 116q41 -29 93.5 -43.5t105.5 -14.5q78 0 132.5 30t54.5 81q0 68 -104 68h-173l24 122h162q53 0 85.5 23.5t32.5 60.5q0 38 -34.5 58t-92.5 20q-44 0 -95.5 -12.5
t-101.5 -37.5l-24 126q122 56 246 56q76 0 137.5 -22t97.5 -63t36 -96q0 -56 -36.5 -101.5t-98.5 -68.5q47 -20 74 -58z" />
    <glyph glyph-name="uni0418" unicode="&#x418;" horiz-adv-x="821" 
d="M174 700h160l-93 -456l425 456h154l-140 -700h-160l94 455l-426 -455h-154z" />
    <glyph glyph-name="uni0419" unicode="&#x419;" horiz-adv-x="821" 
d="M174 700h160l-93 -456l425 456h154l-140 -700h-160l94 455l-426 -455h-154zM376.5 774.5q-43.5 31.5 -43.5 93.5q0 19 2 29h103q-1 -5 -1 -14q0 -29 19.5 -45.5t56.5 -16.5q39 0 64.5 19.5t32.5 56.5h105q-13 -78 -65 -116t-145 -38q-85 0 -128.5 31.5z" />
    <glyph glyph-name="uni041A" unicode="&#x41a;" horiz-adv-x="739" 
d="M508 357l164 -357h-174l-126 283h-119l-57 -283h-162l140 700h162l-57 -283h107l241 283h182z" />
    <glyph glyph-name="uni041B" unicode="&#x41b;" horiz-adv-x="799" 
d="M797 700l-140 -700h-160l114 568h-240l-40 -169q-37 -158 -75 -245.5t-89 -126t-127 -38.5q-38 0 -80 11l37 137q12 -4 27 -4q38 0 66 27t52 88t49 168l68 284h538z" />
    <glyph glyph-name="uni041C" unicode="&#x41c;" horiz-adv-x="963" 
d="M961 700l-139 -700h-151l83 417l-268 -343h-73l-144 348l-84 -422h-151l140 700h132l175 -436l341 436h139z" />
    <glyph glyph-name="uni041D" unicode="&#x41d;" horiz-adv-x="817" 
d="M815 700l-140 -700h-162l57 285h-317l-57 -285h-163l140 700h163l-55 -275h317l55 275h162z" />
    <glyph glyph-name="uni041E" unicode="&#x41e;" horiz-adv-x="848" 
d="M212 26q-77 38 -118 107t-41 159q0 119 54.5 214.5t153 150.5t225.5 55q105 0 182 -38t118 -107t41 -159q0 -119 -54.5 -214.5t-153 -150.5t-225.5 -55q-105 0 -182 38zM543 163q58 37 89 99t31 137q0 80 -50 127.5t-141 47.5q-77 0 -135 -37t-89 -99t-31 -137
q0 -80 50 -127.5t141 -47.5q77 0 135 37z" />
    <glyph glyph-name="uni041F" unicode="&#x41f;" horiz-adv-x="812" 
d="M811 700l-140 -700h-160l111 568h-316l-112 -568h-160l140 700h637z" />
    <glyph glyph-name="uni0420" unicode="&#x420;" horiz-adv-x="732" 
d="M654.5 642.5q71.5 -57.5 71.5 -160.5q0 -88 -41.5 -153.5t-118 -100.5t-180.5 -35h-156l-38 -193h-163l140 700h283q131 0 202.5 -57.5zM518 362q44 37 44 106q0 50 -33.5 75t-96.5 25h-127l-49 -243h137q81 0 125 37z" />
    <glyph glyph-name="uni0421" unicode="&#x421;" horiz-adv-x="741" 
d="M215.5 26q-78.5 38 -120.5 107t-42 159q0 119 54.5 214.5t153.5 150.5t227 55q94 0 166 -32t109 -92l-117 -96q-56 82 -169 82q-77 0 -136 -36t-91.5 -98t-32.5 -138q0 -81 51.5 -128.5t144.5 -47.5q111 0 186 81l96 -98q-104 -121 -296 -121q-105 0 -183.5 38z" />
    <glyph glyph-name="uni0422" unicode="&#x422;" horiz-adv-x="637" 
d="M682 568h-226l-112 -568h-160l112 568h-221l26 132h607z" />
    <glyph glyph-name="uni0423" unicode="&#x423;" horiz-adv-x="725" 
d="M805 700l-408 -559q-57 -79 -123 -118t-136 -39q-57 0 -115 26l54 119q30 -10 59 -10q34 0 63 15.5t57 48.5l12 13l-172 504h169l111 -373l267 373h162z" />
    <glyph glyph-name="uni0424" unicode="&#x424;" horiz-adv-x="958" 
d="M890.5 217q-52.5 -78 -150.5 -122.5t-232 -49.5l-15 -76h-149l15 77q-152 11 -232 77t-80 180q0 102 51.5 180t149.5 123.5t234 52.5l14 71h149l-14 -72q151 -11 231.5 -77t80.5 -182q0 -104 -52.5 -182zM720 234q63 52 63 143q0 71 -43.5 108.5t-134.5 45.5l-72 -359
q124 10 187 62zM250.5 218.5q43.5 -37.5 134.5 -46.5l71 359q-249 -22 -249 -206q0 -69 43.5 -106.5z" />
    <glyph glyph-name="uni0425" unicode="&#x425;" horiz-adv-x="721" 
d="M299 700l101 -212l189 212h193l-300 -335l176 -365h-188l-114 232l-209 -232h-192l325 358l-164 342h183z" />
    <glyph glyph-name="uni0426" unicode="&#x426;" horiz-adv-x="841" 
d="M693 132h101l-56 -280h-150l28 148h-582l140 700h160l-114 -568h313l113 568h161z" />
    <glyph glyph-name="uni0427" unicode="&#x427;" horiz-adv-x="749" 
d="M748 700l-140 -700h-160l50 248q-91 -29 -165 -29q-123 0 -188.5 52.5t-65.5 148.5q0 33 7 67l42 213h160l-42 -207q-5 -27 -5 -43q0 -96 117 -96q86 0 168 37l62 309h160z" />
    <glyph glyph-name="uni0428" unicode="&#x428;" horiz-adv-x="1098" 
d="M1097 700l-140 -700h-923l140 700h160l-113 -568h222l113 568h160l-113 -568h221l113 568h160z" />
    <glyph glyph-name="uni0429" unicode="&#x429;" horiz-adv-x="1127" 
d="M1097 700l-140 -700h-923l140 700h160l-113 -568h222l113 568h160l-113 -568h221l113 568h160zM1082 132l-55 -277h-150l29 145h-109l28 132h257z" />
    <glyph glyph-name="uni042A" unicode="&#x42a;" horiz-adv-x="848" 
d="M758 424.5q58 -45.5 58 -133.5q0 -91 -41.5 -156.5t-119 -100t-182.5 -34.5h-315l114 568h-197l26 132h357l-46 -230h179q109 0 167 -45.5zM606.5 158.5q43.5 38.5 43.5 106.5q0 85 -115 85h-146l-47 -230h147q74 0 117.5 38.5z" />
    <glyph glyph-name="uni042B" unicode="&#x42b;" horiz-adv-x="1053" 
d="M693 279q0 -83 -42.5 -146.5t-120 -98t-180.5 -34.5h-316l140 700h160l-46 -230h172q233 0 233 -191zM481.5 158.5q44.5 38.5 44.5 102.5q0 46 -26.5 67.5t-84.5 21.5h-151l-46 -230h146q73 0 117.5 38.5zM894 700h163l-140 -700h-163z" />
    <glyph glyph-name="uni042C" unicode="&#x42c;" horiz-adv-x="725" 
d="M693 279q0 -83 -42.5 -146.5t-120 -98t-180.5 -34.5h-316l140 700h160l-46 -230h172q233 0 233 -191zM481.5 158.5q44.5 38.5 44.5 102.5q0 46 -26.5 67.5t-84.5 21.5h-151l-46 -230h146q73 0 117.5 38.5z" />
    <glyph glyph-name="uni042D" unicode="&#x42d;" horiz-adv-x="716" 
d="M557 674.5q68 -37.5 104.5 -105.5t36.5 -155q0 -118 -61 -215.5t-163 -154t-218 -56.5q-88 0 -157.5 31.5t-110.5 93.5l122 96q57 -83 164 -83q80 0 145 46t94 120h-289l24 124h283q-6 73 -50.5 115.5t-117.5 42.5q-107 0 -196 -83l-84 96q60 60 142 92.5t173 32.5
t159 -37.5z" />
    <glyph glyph-name="uni042E" unicode="&#x42e;" horiz-adv-x="1118" 
d="M945 674q73 -39 113.5 -109.5t40.5 -161.5q0 -112 -59 -207.5t-159 -152t-216 -56.5q-93 0 -165.5 37.5t-113.5 105t-43 155.5h-92l-57 -285h-160l140 700h160l-56 -275h87q28 83 89.5 148.5t145.5 102.5t177 37q95 0 168 -39zM804.5 163.5q58.5 36.5 93.5 98t35 132.5
q0 82 -46.5 130.5t-123.5 48.5q-67 0 -125.5 -36.5t-93.5 -98t-35 -132.5q0 -82 46 -130.5t123 -48.5q68 0 126.5 36.5z" />
    <glyph glyph-name="uni042F" unicode="&#x42f;" horiz-adv-x="737" 
d="M736 700l-140 -700h-160l37 186h-142l-161 -186h-179l191 213q-53 26 -81 73t-28 111q0 91 45 159.5t126 106t186 37.5h306zM285 527.5q-45 -40.5 -45 -112.5q0 -49 29 -75t88 -26h142l51 254h-139q-81 0 -126 -40.5z" />
    <glyph glyph-name="uni0430" unicode="&#x430;" horiz-adv-x="697" 
d="M676 538l-107 -538h-148l10 53q-67 -61 -165 -61q-63 0 -116 29t-84.5 83.5t-31.5 128.5q0 89 39.5 160.5t107.5 112t150 40.5q124 0 175 -81l14 73h156zM396 143.5q36 22.5 56 62.5t20 92q0 55 -32.5 87t-90.5 32q-46 0 -82 -22.5t-56 -62.5t-20 -92q0 -55 32.5 -87
t90.5 -32q46 0 82 22.5z" />
    <glyph glyph-name="uni0431" unicode="&#x431;" horiz-adv-x="677" 
d="M311.5 531.5q-54.5 -41.5 -82.5 -113.5q82 67 194 67q103 0 161.5 -55t58.5 -152q0 -84 -42 -150t-117 -103t-171 -37q-126 0 -194.5 68t-68.5 202q0 112 45 208t128 160.5t193 84.5l268 49l-2 -131l-230 -41q-86 -15 -140.5 -56.5zM283.5 344.5q-36.5 -19.5 -58 -52
t-21.5 -69.5q0 -56 31 -87t85 -31q44 0 79 20t55 54.5t20 76.5q0 53 -29.5 80.5t-81.5 27.5q-43 0 -79.5 -19.5z" />
    <glyph glyph-name="uni0432" unicode="&#x432;" horiz-adv-x="622" 
d="M560 168q0 -78 -64.5 -123t-180.5 -45h-294l108 538h270q93 0 142.5 -33t49.5 -95q0 -45 -27 -79.5t-76 -52.5q72 -29 72 -110zM228 317h118q42 0 68 18.5t26 48.5q0 49 -71 49h-118zM390.5 125q26.5 19 26.5 51q0 25 -17.5 37t-53.5 12h-136l-24 -119h132q46 0 72.5 19z
" />
    <glyph glyph-name="uni0433" unicode="&#x433;" horiz-adv-x="514" 
d="M534 410h-277l-80 -410h-156l108 538h430z" />
    <glyph glyph-name="uni0434" unicode="&#x434;" horiz-adv-x="700" 
d="M573 128h77l-49 -244h-145l23 116h-378l-23 -116h-145l49 244h16q90 2 144 230l43 180h469zM242 202.5q-17 -47.5 -46 -74.5h221l56 282h-176l-18 -75q-20 -85 -37 -132.5z" />
    <glyph glyph-name="uni0435" unicode="&#x435;" horiz-adv-x="633" 
d="M597 227h-412q8 -110 139 -110q41 0 78.5 13t65.5 37l65 -103q-45 -36 -103 -54t-122 -18q-83 0 -145.5 29.5t-96 84.5t-33.5 127q0 89 40.5 160.5t112.5 112t164 40.5q78 0 135.5 -29t89 -83t31.5 -125q0 -37 -9 -82zM250 399.5q-38 -29.5 -54 -81.5h267
q0 52 -32.5 81.5t-87.5 29.5t-93 -29.5z" />
    <glyph glyph-name="uni0436" unicode="&#x436;" horiz-adv-x="914" 
d="M735 270l119 -270h-181l-77 207h-72l-42 -207h-155l41 207h-72l-155 -207h-190l229 283l-105 255h162l78 -210h77l42 210h156l-42 -210h71l163 210h171z" />
    <glyph glyph-name="uni0437" unicode="&#x437;" horiz-adv-x="545" 
d="M467.5 232.5q22.5 -28.5 22.5 -66.5q0 -50 -37 -90t-103 -63t-148 -23q-119 0 -221 55l52 105q33 -19 79.5 -29.5t95.5 -10.5q61 0 96.5 18.5t35.5 50.5q0 47 -75 47h-110l15 97h92q44 0 69.5 14.5t25.5 40.5q0 50 -89 50q-37 0 -74.5 -9.5t-87.5 -31.5l-33 117
q105 44 210 44q67 0 118.5 -18t80.5 -51t29 -76q0 -42 -28.5 -76t-77.5 -51q40 -15 62.5 -43.5z" />
    <glyph glyph-name="uni0438" unicode="&#x438;" horiz-adv-x="711" 
d="M129 538h156l-67 -327l325 327h147l-107 -538h-157l68 328l-325 -328h-148z" />
    <glyph glyph-name="uni0439" unicode="&#x439;" horiz-adv-x="711" 
d="M129 538h156l-67 -327l325 327h147l-107 -538h-157l68 328l-325 -328h-148zM301 626.5q-40 29.5 -40 86.5q0 21 4 38h101q-2 -14 -2 -19q0 -27 17 -42t47 -15q71 0 88 76h103q-15 -78 -64.5 -116t-135.5 -38q-78 0 -118 29.5z" />
    <glyph glyph-name="uni043A" unicode="&#x43a;" horiz-adv-x="640" 
d="M435 270l148 -270h-180l-97 204h-88l-41 -204h-156l108 538h156l-42 -209h81l189 209h170z" />
    <glyph glyph-name="uni043B" unicode="&#x43b;" horiz-adv-x="666" 
d="M645 538l-108 -538h-156l82 411h-171l-23 -96q-29 -118 -59 -188t-72 -104t-103 -34q-37 0 -82 12l34 128q18 -2 24 -2q45 0 71.5 48t50.5 148l52 215h460z" />
    <glyph glyph-name="uni043C" unicode="&#x43c;" horiz-adv-x="815" 
d="M793 538l-106 -538h-141l62 318l-210 -266h-66l-105 277l-65 -329h-141l108 538h161l110 -311l245 311h148z" />
    <glyph glyph-name="uni043D" unicode="&#x43d;" horiz-adv-x="694" 
d="M129 538h155l-42 -210h234l42 210h155l-107 -538h-156l40 201h-233l-40 -201h-156z" />
    <glyph glyph-name="uni043E" unicode="&#x43e;" horiz-adv-x="659" 
d="M159.5 22q-61.5 30 -95 84.5t-33.5 126.5q0 89 42 160t116 112t167 41q82 0 143 -30t94.5 -84.5t33.5 -126.5q0 -89 -41.5 -160t-116 -112t-167.5 -41q-81 0 -142.5 30zM393 143.5q36 22.5 56 62.5t20 92q0 55 -32 87t-90 32q-46 0 -82 -22.5t-56 -62.5t-20 -92
q0 -55 32.5 -87t90.5 -32q45 0 81 22.5z" />
    <glyph glyph-name="uni043F" unicode="&#x43f;" horiz-adv-x="685" 
d="M664 538l-108 -538h-156l80 410h-223l-80 -410h-156l108 538h535z" />
    <glyph glyph-name="uni0440" unicode="&#x440;" horiz-adv-x="697" 
d="M547.5 517q53.5 -29 85 -83.5t31.5 -128.5q0 -89 -39.5 -160.5t-107.5 -112t-151 -40.5q-123 0 -174 80l-53 -266h-156l146 732h148l-11 -53q67 61 165 61q63 0 116.5 -29zM430 143.5q36 22.5 56 62.5t20 92q0 55 -32.5 87t-90.5 32q-45 0 -81 -22.5t-56 -62.5t-20 -92
q0 -55 32 -87t90 -32q46 0 82 22.5z" />
    <glyph glyph-name="uni0441" unicode="&#x441;" horiz-adv-x="604" 
d="M160 22q-62 30 -95.5 84.5t-33.5 126.5q0 89 42 160t117 112t169 41q86 0 148.5 -35.5t93.5 -100.5l-132 -66q-35 73 -120 73q-46 0 -82.5 -22.5t-57 -62.5t-20.5 -91q0 -55 33 -87.5t92 -32.5q86 0 132 72l115 -72q-39 -61 -106.5 -95t-149.5 -34q-83 0 -145 30z" />
    <glyph glyph-name="uni0442" unicode="&#x442;" horiz-adv-x="535" 
d="M555 410h-183l-80 -410h-156l80 410h-180l26 128h519z" />
    <glyph glyph-name="uni0443" unicode="&#x443;" horiz-adv-x="615" 
d="M668 538l-358 -574q-58 -94 -112.5 -130t-133.5 -36q-42 0 -82.5 13t-63.5 34l72 112q36 -33 86 -33q30 0 52 15t45 51l5 9l-124 539h156l80 -366l224 366h154z" />
    <glyph glyph-name="uni0444" unicode="&#x444;" horiz-adv-x="845" 
d="M770 148q-46 -70 -132 -110.5t-203 -45.5l-37 -186h-136l37 187q-134 11 -203 69t-69 165q0 91 46 160.5t132 110t205 47.5l39 197h136l-40 -198q134 -11 202.5 -69.5t68.5 -164.5q0 -92 -46 -162zM616 171q54 46 54 122q0 60 -35.5 91t-113.5 38l-61 -307q102 10 156 56
zM210 154.5q36 -31.5 114 -39.5l61 306q-104 -10 -157.5 -55t-53.5 -120q0 -60 36 -91.5z" />
    <glyph glyph-name="uni0445" unicode="&#x445;" horiz-adv-x="594" 
d="M383 269l150 -269h-165l-88 165l-155 -165h-178l269 276l-143 262h162l85 -158l150 158h172z" />
    <glyph glyph-name="uni0446" unicode="&#x446;" horiz-adv-x="704" 
d="M575 128h78l-49 -246h-145l24 118h-462l108 538h155l-82 -410h217l82 410h156z" />
    <glyph glyph-name="uni0447" unicode="&#x447;" horiz-adv-x="633" 
d="M612 538l-108 -538h-155l39 195q-69 -29 -146 -29q-95 0 -145 38t-50 114q0 27 6 57l33 163h156l-34 -165q-3 -16 -3 -30q0 -31 18.5 -44t56.5 -13q61 0 132 32l44 220h156z" />
    <glyph glyph-name="uni0448" unicode="&#x448;" horiz-adv-x="971" 
d="M950 538l-108 -538h-821l108 538h155l-80 -410h178l80 410h156l-80 -410h176l80 410h156z" />
    <glyph glyph-name="uni0449" unicode="&#x449;" horiz-adv-x="996" 
d="M950 538l-108 -538h-821l108 538h155l-80 -410h178l80 410h156l-80 -410h176l80 410h156zM944 128l-48 -235h-145l22 107h-90l26 128h235z" />
    <glyph glyph-name="uni044A" unicode="&#x44a;" horiz-adv-x="693" 
d="M608.5 327.5q48.5 -38.5 48.5 -114.5q0 -64 -33.5 -112t-94.5 -74.5t-142 -26.5h-277l82 410h-156l26 128h311l-34 -172h127q94 0 142.5 -38.5zM469 135.5q31 25.5 31 68.5q0 61 -80 61h-101l-31 -155h100q50 0 81 25.5z" />
    <glyph glyph-name="uni044B" unicode="&#x44b;" horiz-adv-x="859" 
d="M683 538h155l-107 -538h-156zM509.5 327.5q48.5 -38.5 48.5 -114.5q0 -64 -33.5 -112t-94.5 -74.5t-142 -26.5h-267l108 537h155l-34 -171h117q94 0 142.5 -38.5zM370 135.5q31 25.5 31 68.5q0 61 -80 61h-91l-31 -155h89q51 0 82 25.5z" />
    <glyph glyph-name="uni044C" unicode="&#x44c;" horiz-adv-x="604" 
d="M519.5 327.5q48.5 -38.5 48.5 -114.5q0 -64 -33 -112t-94 -74.5t-142 -26.5h-278l108 537h155l-34 -171h127q94 0 142.5 -38.5zM380 135.5q31 25.5 31 68.5q0 61 -80 61h-101l-31 -155h100q50 0 81 25.5z" />
    <glyph glyph-name="uni044D" unicode="&#x44d;" horiz-adv-x="594" 
d="M437.5 516.5q60.5 -30.5 94 -86t33.5 -127.5q0 -87 -46.5 -158.5t-127.5 -113t-179 -41.5q-76 0 -134 26.5t-93 76.5l98 77q24 -30 59 -45.5t77 -15.5q60 0 108 29.5t72 79.5h-228l22 107h222q-7 50 -43 77.5t-95 27.5q-84 0 -154 -64l-75 83q47 47 113 72.5t138 25.5
q78 0 138.5 -30.5z" />
    <glyph glyph-name="uni044E" unicode="&#x44e;" horiz-adv-x="910" 
d="M753 516.5q60 -29.5 92.5 -84t32.5 -125.5q0 -89 -41 -161t-113.5 -113t-164.5 -41q-113 0 -184 58t-80 155h-77l-41 -205h-156l108 538h155l-39 -198h67q32 93 113 149.5t188 56.5q80 0 140 -29.5zM647 143.5q34 22.5 53.5 63t19.5 92.5q0 55 -30.5 86.5t-85.5 31.5
q-67 0 -109.5 -49.5t-42.5 -128.5q0 -55 30.5 -86.5t86.5 -31.5q44 0 78 22.5z" />
    <glyph glyph-name="uni044F" unicode="&#x44f;" horiz-adv-x="629" 
d="M608 538l-107 -538h-138l30 157h-111l-130 -157h-173l163 180q-45 20 -68 55.5t-23 83.5q0 103 78 161t216 58h263zM242 389q-31 -23 -31 -67q0 -63 84 -63h120l30 153h-114q-58 0 -89 -23z" />
    <glyph glyph-name="uni0450" unicode="&#x450;" horiz-adv-x="633" 
d="M597 227h-412q8 -110 139 -110q41 0 78.5 13t65.5 37l65 -103q-45 -36 -103 -54t-122 -18q-83 0 -145.5 29.5t-96 84.5t-33.5 127q0 89 40.5 160.5t112.5 112t164 40.5q78 0 135.5 -29t89 -83t31.5 -125q0 -37 -9 -82zM250 399.5q-38 -29.5 -54 -81.5h267
q0 52 -32.5 81.5t-87.5 29.5t-93 -29.5zM201 750h167l106 -144h-121z" />
    <glyph glyph-name="uni0451" unicode="&#x451;" horiz-adv-x="633" 
d="M597 227h-412q8 -110 139 -110q41 0 78.5 13t65.5 37l65 -103q-45 -36 -103 -54t-122 -18q-83 0 -145.5 29.5t-96 84.5t-33.5 127q0 89 40.5 160.5t112.5 112t164 40.5q78 0 135.5 -29t89 -83t31.5 -125q0 -37 -9 -82zM250 399.5q-38 -29.5 -54 -81.5h267
q0 52 -32.5 81.5t-87.5 29.5t-93 -29.5zM245.5 628q-18.5 17 -18.5 45q0 33 22 54.5t52 21.5q28 0 47 -17t19 -45q0 -33 -22.5 -54.5t-52.5 -21.5q-28 0 -46.5 17zM448.5 628q-18.5 17 -18.5 45q0 34 21.5 55t52.5 21q28 0 46.5 -17t18.5 -45q0 -33 -22 -54.5t-52 -21.5
q-28 0 -46.5 17z" />
    <glyph glyph-name="uni0452" unicode="&#x452;" horiz-adv-x="682" 
d="M583 498q53 -48 53 -136q0 -32 -7 -64l-58 -297q-18 -94 -82.5 -148.5t-160.5 -54.5q-81 0 -120 30l65 113q22 -19 61 -19q31 0 52 20t28 58l57 288q4 19 4 39q0 41 -23 62.5t-69 21.5q-60 0 -99 -34.5t-53 -103.5l-55 -273h-156l118 591h-95l18 91h95l12 60h156l-12 -60
h221l-19 -91h-220l-20 -102q69 57 167 57q89 0 142 -48z" />
    <glyph glyph-name="uni0453" unicode="&#x453;" horiz-adv-x="514" 
d="M534 410h-277l-80 -410h-156l108 538h430zM417 750h172l-196 -144h-126z" />
    <glyph glyph-name="uni0454" unicode="&#x454;" horiz-adv-x="596" 
d="M156.5 21.5q-60.5 30.5 -94 86t-33.5 127.5q0 87 46.5 158.5t127.5 113t179 41.5q76 0 134 -26.5t93 -76.5l-98 -77q-24 30 -59 45.5t-77 15.5q-60 0 -108 -29.5t-72 -79.5h228l-22 -107h-222q7 -50 43 -77.5t95 -27.5q84 0 154 64l75 -83q-47 -47 -113 -72.5t-138 -25.5
q-78 0 -138.5 30.5z" />
    <glyph glyph-name="uni0455" unicode="&#x455;" horiz-adv-x="548" 
d="M93.5 7.5q-62.5 15.5 -97.5 40.5l60 113q35 -23 85.5 -37t101.5 -14q53 0 79 13.5t26 38.5q0 20 -23 29t-74 19q-58 11 -95.5 24t-65 42.5t-27.5 80.5q0 89 74.5 139t195.5 50q56 0 109 -12t90 -33l-56 -114q-66 41 -159 41q-51 0 -77.5 -15t-26.5 -38q0 -21 23 -30.5
t77 -20.5q57 -11 93.5 -23.5t63.5 -41.5t27 -79q0 -90 -75.5 -139t-195.5 -49q-70 0 -132.5 15.5z" />
    <glyph glyph-name="uni0456" unicode="&#x456;" horiz-adv-x="304" 
d="M128 538h155l-107 -538h-155zM166.5 636.5q-25.5 23.5 -25.5 57.5q0 40 28.5 66.5t74.5 26.5q41 0 66.5 -22.5t25.5 -55.5q0 -43 -29 -69.5t-75 -26.5q-40 0 -65.5 23.5z" />
    <glyph glyph-name="uni0457" unicode="&#x457;" horiz-adv-x="300" 
d="M126 538h155l-107 -538h-155zM102 629.5q-18 17.5 -18 44.5q0 33 20 54.5t51 21.5q26 0 43 -18t17 -46q0 -32 -20 -53t-49 -21q-26 0 -44 17.5zM266.5 629.5q-17.5 17.5 -17.5 44.5q0 33 20 54.5t50 21.5q26 0 43 -17.5t17 -44.5q0 -33 -19.5 -54.5t-49.5 -21.5
q-26 0 -43.5 17.5z" />
    <glyph glyph-name="uni0458" unicode="&#x458;" horiz-adv-x="306" 
d="M-183 -172l62 113q27 -19 65 -19q32 0 50.5 19t26.5 60l108 537h156l-107 -533q-41 -207 -232 -207q-78 0 -129 30zM167.5 636.5q-25.5 23.5 -25.5 57.5q0 40 28.5 66.5t74.5 26.5q41 0 66.5 -22.5t25.5 -55.5q0 -43 -29 -69.5t-75 -26.5q-40 0 -65.5 23.5z" />
    <glyph glyph-name="uni0459" unicode="&#x459;" horiz-adv-x="964" 
d="M645 538l-108 -538h-156l82 411h-171l-23 -96q-29 -118 -59 -188t-72 -104t-103 -34q-37 0 -82 12l34 128q18 -2 24 -2q45 0 71.5 48t50.5 148l52 215h460zM879.5 327.5q48.5 -38.5 48.5 -114.5q0 -64 -33 -112t-94 -74.5t-142 -26.5h-278l108 537h155l-34 -171h127
q94 0 142.5 -38.5zM740 135.5q31 25.5 31 68.5q0 61 -80 61h-101l-31 -155h100q50 0 81 25.5z" />
    <glyph glyph-name="uni045A" unicode="&#x45a;" horiz-adv-x="971" 
d="M885.5 306q48.5 -39 48.5 -111q0 -58 -32 -102.5t-91 -68.5t-137 -24h-272l43 218h-225l-43 -218h-156l108 538h155l-38 -193h225l38 193h155l-39 -193h123q89 0 137.5 -39zM749.5 129q27.5 21 27.5 58q0 27 -17 39.5t-53 12.5h-102l-27 -131h95q49 0 76.5 21z" />
    <glyph glyph-name="uni045B" unicode="&#x45b;" horiz-adv-x="682" 
d="M584 498q53 -48 53 -136q0 -32 -7 -64l-60 -298h-156l58 288q4 17 4 37q0 42 -23 64t-69 22q-60 0 -99.5 -34.5t-53.5 -103.5l-54 -273h-156l118 594h-120l17 83h120l13 65h156l-13 -65h209l-17 -83h-209l-20 -105q69 57 166 57q90 0 143 -48z" />
    <glyph glyph-name="uni045C" unicode="&#x45c;" horiz-adv-x="640" 
d="M435 270l148 -270h-180l-97 204h-88l-41 -204h-156l108 538h156l-42 -209h81l189 209h170zM455 751h172l-196 -144h-126z" />
    <glyph glyph-name="uni045D" unicode="&#x45d;" horiz-adv-x="711" 
d="M129 538h156l-67 -327l325 327h147l-107 -538h-157l68 328l-325 -328h-148zM231 751h167l106 -144h-121z" />
    <glyph glyph-name="uni045E" unicode="&#x45e;" horiz-adv-x="615" 
d="M668 538l-358 -574q-58 -94 -112.5 -130t-133.5 -36q-42 0 -82.5 13t-63.5 34l72 112q36 -33 86 -33q30 0 52 15t45 51l5 9l-124 539h156l80 -366l224 366h154zM250 626.5q-40 29.5 -40 86.5q0 21 4 38h101q-2 -14 -2 -19q0 -27 17 -42t47 -15q71 0 88 76h103
q-15 -78 -64.5 -116t-135.5 -38q-78 0 -118 29.5z" />
    <glyph glyph-name="uni045F" unicode="&#x45f;" horiz-adv-x="661" 
d="M532 0h-182l-24 -118h-146l24 118h-183l108 538h155l-82 -410h200l82 410h156z" />
    <glyph glyph-name="uni0462" unicode="&#x462;" horiz-adv-x="828" 
d="M737 416q60 -47 60 -134q0 -27 -6 -57q-22 -108 -105.5 -166.5t-218.5 -58.5h-327l109 544h-177l20 103h177l19 95h160l-19 -95h214l-20 -103h-214l-16 -81h174q110 0 170 -47zM588 157.5q44 37.5 44 101.5q0 83 -116 83h-146l-46 -222h146q74 0 118 37.5z" />
    <glyph glyph-name="uni0463" unicode="&#x463;" horiz-adv-x="646" 
d="M561.5 327.5q48.5 -38.5 48.5 -114.5q0 -64 -33 -112t-94 -74.5t-142 -26.5h-277l95 474h-119l20 100h118l34 168h155l-34 -168h192l-20 -100h-191l-22 -108h127q94 0 142.5 -38.5zM422 135.5q31 25.5 31 68.5q0 61 -80 61h-101l-31 -155h100q50 0 81 25.5z" />
    <glyph glyph-name="uni046A" unicode="&#x46a;" horiz-adv-x="945" 
d="M907 602l-249 -219q80 -5 128 -60.5t68 -177.5l25 -145h-167l-15 110q-9 85 -39 123.5t-80 38.5h-33l-54 -272h-145l54 272h-30q-53 0 -98 -37.5t-89 -124.5l-58 -110h-167l85 146q69 121 138 176t151 60l-161 218l20 100h735zM728 585h-384l150 -202h2z" />
    <glyph glyph-name="uni046B" unicode="&#x46b;" horiz-adv-x="771" 
d="M721 448l-181 -151q63 -5 99 -48.5t52 -141.5l19 -107h-152l-9 75q-7 68 -26.5 95.5t-59.5 27.5h-26l-40 -198h-134l40 198h-23q-39 0 -71.5 -28t-65.5 -95l-38 -75h-151l62 107q53 96 105.5 139.5t116.5 50.5l-119 151l17 90h603zM560 439h-284l114 -141z" />
    <glyph glyph-name="uni0472" unicode="&#x472;" horiz-adv-x="848" 
d="M212 26q-77 38 -118 107t-41 159q0 119 54.5 214.5t153 150.5t225.5 55q105 0 182 -38t118 -107t41 -159q0 -119 -54.5 -214.5t-153 -150.5t-225.5 -55q-105 0 -182 38zM543 163q58 37 89 99t31 137q0 80 -50 127.5t-141 47.5q-77 0 -135 -37t-89 -99t-31 -137
q0 -80 50 -127.5t141 -47.5q77 0 135 37zM114.298 404h667.699l-16.8125 -108h-666.898z" />
    <glyph glyph-name="uni0473" unicode="&#x473;" horiz-adv-x="667" 
d="M506 516.5q62 -29.5 96 -84.5t34 -127q0 -89 -42 -160.5t-117 -112t-170 -40.5q-84 0 -146 30t-96 84.5t-34 126.5q0 89 42 160.5t117 112t170 40.5q84 0 146 -29.5zM256 398.5q-41 -28.5 -60 -79.5h286q-6 53 -39.5 80.5t-91.5 27.5q-54 0 -95 -28.5zM411 139.5
q41 28.5 59 79.5h-286q6 -52 40.5 -80t91.5 -28q54 0 95 28.5z" />
    <glyph glyph-name="uni0474" unicode="&#x474;" horiz-adv-x="788" 
d="M95 700h172l94 -477l188 339q42 79 93 115t120 36q45 0 96 -13l-35 -148q-22 6 -40 6q-37 0 -66 -25t-59 -81l-258 -452h-160z" />
    <glyph glyph-name="uni0475" unicode="&#x475;" horiz-adv-x="647" 
d="M511.5 521q42.5 29 99.5 29q38 0 83 -12l-42 -141q-22 6 -38 6q-23 0 -39.5 -15.5t-39.5 -57.5l-191 -330h-153l-138 537h157l85 -361l140 255q34 61 76.5 90z" />
    <glyph glyph-name="uni048A" unicode="&#x48a;" horiz-adv-x="854" 
d="M376.5 774.5q-43.5 31.5 -43.5 93.5q0 19 2 29h103q-1 -5 -1 -14q0 -29 19.5 -45.5t56.5 -16.5q39 0 64.5 19.5t32.5 56.5h105q-13 -78 -65 -116t-145 -38q-85 0 -128.5 31.5zM706 132h103l-135 -277h-128l58 145h-84l94 455l-426 -455h-154l140 700h160l-93 -456
l425 456h154z" />
    <glyph glyph-name="uni048B" unicode="&#x48b;" horiz-adv-x="738" 
d="M304 636.5q-47 37.5 -47 99.5q0 10 1 15h95q-1 -32 20.5 -51.5t58.5 -19.5t62 19.5t31 51.5h101q-13 -70 -68 -111t-135 -41q-72 0 -119 37.5zM691 128l-116 -235h-124l45 107h-70l68 328l-325 -328h-148l108 538h156l-67 -327l325 327h147l-82 -410h83z" />
    <glyph glyph-name="uni048C" unicode="&#x48c;" horiz-adv-x="755" 
d="M722 275q0 -83 -42 -145.5t-119.5 -96t-180.5 -33.5h-316l109 544h-94l20 103h94l19 95h160l-19 -95h210l-20 -103h-210l-16 -78h173q232 0 232 -191zM511.5 157q43.5 37 43.5 100q0 46 -26.5 67.5t-84.5 21.5h-151l-45 -226h146q74 0 117.5 37z" />
    <glyph glyph-name="uni048D" unicode="&#x48d;" horiz-adv-x="638" 
d="M553 309.5q49 -37.5 49 -110.5q0 -60 -33 -105t-93 -69.5t-140 -24.5h-278l78 392h-95l19 96h95l10 50h155l-10 -50h193l-19 -96h-193l-9 -45h128q94 0 143 -37.5zM414.5 130q30.5 23 30.5 62q0 29 -19.5 43.5t-60.5 14.5h-102l-28 -143h99q50 0 80.5 23z" />
    <glyph glyph-name="uni048E" unicode="&#x48e;" horiz-adv-x="734" 
d="M690 330.5q-40 -64.5 -114 -99.5l57 -98l-72 -53l-71 122q-46 -9 -100 -9h-156l-38 -193h-163l140 700h283q131 0 202.5 -57.5t71.5 -160.5q0 -87 -40 -151.5zM506 350q60 37 60 118q0 50 -33.5 75t-96.5 25h-127l-49 -243h137q14 0 21 1l-52 89l71 52z" />
    <glyph glyph-name="uni048F" unicode="&#x48f;" horiz-adv-x="701" 
d="M632 159.5q-32 -66.5 -88 -109.5l37 -64l-72 -49l-43 72q-48 -17 -100 -17q-123 0 -174 80l-53 -266h-156l146 732h148l-11 -53q67 61 165 61q63 0 116.5 -29t85 -83.5t31.5 -128.5q0 -79 -32 -145.5zM395 128l-47 78l76 51l45 -78q37 50 37 119q0 55 -32.5 87t-90.5 32
q-45 0 -81 -22.5t-56 -62.5t-20 -92q0 -55 32 -87t90 -32q26 0 47 7z" />
    <glyph glyph-name="uni0490" unicode="&#x490;" horiz-adv-x="595" 
d="M174 700h343l29 144h149l-55 -276h-333l-113 -568h-160z" />
    <glyph glyph-name="uni0491" unicode="&#x491;" horiz-adv-x="501" 
d="M129 538h272l22 110h146l-48 -238h-263l-81 -410h-156z" />
    <glyph glyph-name="uni0492" unicode="&#x492;" horiz-adv-x="644" 
d="M349 568l-38 -196h263l-20 -103h-264l-52 -269h-160l54 269h-114l20 103h114l66 328h493l-27 -132h-335z" />
    <glyph glyph-name="uni0493" unicode="&#x493;" horiz-adv-x="545" 
d="M280 410l-26 -135h207l-19 -95h-207l-35 -180h-156l36 180h-66l19 95h66l53 263h430l-25 -128h-277z" />
    <glyph glyph-name="uni0494" unicode="&#x494;" horiz-adv-x="706" 
d="M306 568l-39 -199q81 27 156 27q101 0 163.5 -52.5t62.5 -154.5q0 -95 -45.5 -172.5t-123 -122.5t-168.5 -45q-37 0 -71 7l36 122q22 -4 33 -4q49 0 90.5 29t65.5 75.5t24 96.5q0 49 -30.5 73.5t-80.5 24.5q-64 0 -138 -36l-47 -237h-160l140 700h513l-26 -132h-355z" />
    <glyph glyph-name="uni0495" unicode="&#x495;" horiz-adv-x="630" 
d="M365 294q98 0 154 -52t56 -147q0 -84 -42.5 -152t-115.5 -107t-161 -39q-40 0 -82 9l42 128q20 -4 43 -4q67 0 110.5 39.5t43.5 101.5q0 48 -28.5 73.5t-77.5 25.5q-44 0 -100 -21l-30 -149h-155l107 538h434l-26 -128h-278l-28 -138q72 22 134 22z" />
    <glyph glyph-name="uni0496" unicode="&#x496;" horiz-adv-x="1116" 
d="M876 362l136 -362h-184l-101 282h-104l-56 -282h-159l56 282h-101l-213 -282h-192l286 371l-128 329h167l99 -283h109l57 283h159l-57 -283h104l213 283h175zM1071 132l-55 -277h-149l29 145h-68l26 132h217z" />
    <glyph glyph-name="uni0497" unicode="&#x497;" horiz-adv-x="950" 
d="M735 270l119 -270h-181l-77 207h-72l-42 -207h-155l41 207h-72l-155 -207h-190l229 283l-105 255h162l78 -210h77l42 210h156l-42 -210h71l163 210h171zM906 125l-47 -233h-141l21 108h-66l25 125h208z" />
    <glyph glyph-name="uni0498" unicode="&#x498;" horiz-adv-x="657" 
d="M576 305q27 -38 27 -88q0 -69 -48.5 -122t-129 -82t-173.5 -29q-72 0 -142.5 19t-128.5 58l74 116q41 -29 93.5 -43.5t105.5 -14.5q78 0 132.5 30t54.5 81q0 68 -104 68h-173l24 122h162q53 0 85.5 23.5t32.5 60.5q0 38 -34.5 58t-92.5 20q-44 0 -95.5 -12.5
t-101.5 -37.5l-24 126q122 56 246 56q76 0 137.5 -22t97.5 -63t36 -96q0 -56 -36.5 -101.5t-98.5 -68.5q47 -20 74 -58zM310 -145h-150l35 176h150z" />
    <glyph glyph-name="uni0499" unicode="&#x499;" horiz-adv-x="545" 
d="M467.5 232.5q22.5 -28.5 22.5 -66.5q0 -50 -37 -90t-103 -63t-148 -23q-119 0 -221 55l52 105q33 -19 79.5 -29.5t95.5 -10.5q61 0 96.5 18.5t35.5 50.5q0 47 -75 47h-110l15 97h92q44 0 69.5 14.5t25.5 40.5q0 50 -89 50q-37 0 -74.5 -9.5t-87.5 -31.5l-33 117
q105 44 210 44q67 0 118.5 -18t80.5 -51t29 -76q0 -42 -28.5 -76t-77.5 -51q40 -15 62.5 -43.5zM266 -107h-146l27 135h146z" />
    <glyph glyph-name="uni049A" unicode="&#x49a;" horiz-adv-x="786" 
d="M508 357l164 -357h-174l-126 283h-119l-57 -283h-162l140 700h162l-57 -283h107l241 283h182zM741 132l-55 -277h-149l29 145h-68l26 132h217z" />
    <glyph glyph-name="uni049B" unicode="&#x49b;" horiz-adv-x="679" 
d="M435 270l148 -270h-180l-97 204h-88l-41 -204h-156l108 538h156l-42 -209h81l189 209h170zM636 125l-47 -233h-141l21 108h-66l25 125h208z" />
    <glyph glyph-name="uni049C" unicode="&#x49c;" horiz-adv-x="774" 
d="M563 356l144 -356h-186l-103 282h-31l-24 -119h-87l24 119h-52l-56 -282h-158l140 700h158l-57 -283h51l24 120h87l-24 -120h31l216 283h175z" />
    <glyph glyph-name="uni049D" unicode="&#x49d;" horiz-adv-x="649" 
d="M474 268l113 -268h-179l-64 206h-18l-16 -81h-79l17 81h-30l-41 -206h-156l108 538h156l-42 -209h30l17 85h77l-17 -85h15l152 209h171z" />
    <glyph glyph-name="uni049E" unicode="&#x49e;" horiz-adv-x="781" 
d="M550 357l164 -357h-174l-126 283h-119l-57 -283h-162l108 538h-114l17 88h114l15 74h162l-15 -74h106l-18 -88h-105l-25 -121h107l241 283h182z" />
    <glyph glyph-name="uni049F" unicode="&#x49f;" horiz-adv-x="639" 
d="M434 269l148 -269h-181l-97 206h-87l-41 -206h-156l118 591h-86l18 92h86l12 59h156l-12 -60h134l-18 -91h-134l-52 -262h80l190 209h170z" />
    <glyph glyph-name="uni04A0" unicode="&#x4a0;" horiz-adv-x="884" 
d="M673 356l145 -356h-187l-103 282h-154l-56 -282h-160l114 568h-197l26 132h357l-26 -132l-31 -151h153l216 283h175z" />
    <glyph glyph-name="uni04A1" unicode="&#x4a1;" horiz-adv-x="723" 
d="M519 270l148 -270h-181l-96 204h-89l-41 -204h-156l83 413h-150l25 125h306l-25 -125l-17 -84h81l190 209h169z" />
    <glyph glyph-name="uni04A2" unicode="&#x4a2;" horiz-adv-x="847" 
d="M815 700l-140 -700h-162l57 285h-317l-57 -285h-163l140 700h163l-55 -275h317l55 275h162zM799 132l-55 -277h-150l29 145h-109l28 132h257z" />
    <glyph glyph-name="uni04A3" unicode="&#x4a3;" horiz-adv-x="720" 
d="M129 538h155l-42 -210h234l42 210h155l-107 -538h-156l40 201h-233l-40 -201h-156zM671 128l-48 -235h-145l22 107h-90l26 128h235z" />
    <glyph glyph-name="uni04A4" unicode="&#x4a4;" horiz-adv-x="1075" 
d="M815 700l-140 -700h-162l57 285h-317l-57 -285h-163l140 700h163l-55 -275h317l55 275h162zM1120 568h-335l-111 -568h-160l140 700h493z" />
    <glyph glyph-name="uni04A5" unicode="&#x4a5;" horiz-adv-x="903" 
d="M129 538h155l-42 -210h234l42 210h155l-107 -538h-156l40 201h-233l-40 -201h-156zM923 410h-277l-80 -410h-156l108 538h430z" />
    <glyph glyph-name="uni04A8" unicode="&#x4a8;" horiz-adv-x="994" 
d="M790 91q59 0 125 18l-10 -110q-73 -19 -144 -19q-95 0 -175 34q-87 -28 -175 -28q-106 0 -186 40t-123.5 113t-43.5 170q0 112 57.5 219t161.5 188l134 -65q-89 -66 -139 -155.5t-50 -179.5q0 -99 60.5 -158t164.5 -59h18q-44 48 -67.5 110.5t-23.5 134.5
q0 105 43.5 190.5t120.5 134t172 48.5q113 0 179.5 -67.5t66.5 -182.5q0 -107 -57 -205t-154 -168q22 -3 45 -3zM549 230.5q24 -52.5 68 -86.5q84 48 135 131.5t51 180.5q0 66 -26 100t-78 34q-50 0 -90 -30.5t-62 -85.5t-22 -124q0 -67 24 -119.5z" />
    <glyph glyph-name="uni04A9" unicode="&#x4a9;" horiz-adv-x="866" 
d="M698 85q52 0 109 12l-17 -105q-62 -14 -116 -14q-90 0 -171 35q-78 -26 -161 -26q-92 0 -160 34.5t-105 98t-37 148.5t42 159.5t119 124.5l132 -60q-66 -47 -101.5 -104.5t-35.5 -119.5q0 -80 49.5 -125t136.5 -45h3q-72 83 -72 194q0 76 34 135t94.5 92t138.5 33
q67 0 117.5 -24.5t78.5 -69.5t28 -104q0 -74 -41.5 -143.5t-113.5 -122.5q24 -3 49 -3zM469 200q21 -40 60 -68q63 31 100 84.5t37 117.5q0 50 -25 77.5t-70 27.5q-55 0 -89 -40.5t-34 -106.5q0 -52 21 -92z" />
    <glyph glyph-name="uni04AA" unicode="&#x4aa;" horiz-adv-x="741" 
d="M215.5 26q-78.5 38 -120.5 107t-42 159q0 119 54.5 214.5t153.5 150.5t227 55q94 0 166 -32t109 -92l-117 -96q-56 82 -169 82q-77 0 -136 -36t-91.5 -98t-32.5 -138q0 -81 51.5 -128.5t144.5 -47.5q111 0 186 81l96 -98q-104 -121 -296 -121q-105 0 -183.5 38zM396 -145
h-150l35 176h150z" />
    <glyph glyph-name="uni04AB" unicode="&#x4ab;" horiz-adv-x="604" 
d="M160 22q-62 30 -95.5 84.5t-33.5 126.5q0 89 42 160t117 112t169 41q86 0 148.5 -35.5t93.5 -100.5l-132 -66q-35 73 -120 73q-46 0 -82.5 -22.5t-57 -62.5t-20.5 -91q0 -55 33 -87.5t92 -32.5q86 0 132 72l115 -72q-39 -61 -106.5 -95t-149.5 -34q-83 0 -145 30z
M337 -107h-146l27 135h146z" />
    <glyph glyph-name="uni04AC" unicode="&#x4ac;" horiz-adv-x="637" 
d="M682 568h-226l-112 -568h-160l112 568h-221l26 132h607zM469 132l-55 -277h-150l29 145h-109l28 132h257z" />
    <glyph glyph-name="uni04AD" unicode="&#x4ad;" horiz-adv-x="535" 
d="M555 410h-183l-80 -410h-156l80 410h-180l26 128h519zM397 128l-48 -235h-145l22 107h-90l26 128h235z" />
    <glyph glyph-name="uni04AE" unicode="&#x4ae;" horiz-adv-x="712" 
d="M431 243l-48 -243h-162l49 250l-180 450h162l125 -312l251 312h167z" />
    <glyph glyph-name="uni04AF" unicode="&#x4af;" horiz-adv-x="616" 
d="M330 -10l-38 -185h-156l39 190l-120 543h154l78 -369l226 369h156z" />
    <glyph glyph-name="uni04B0" unicode="&#x4b0;" horiz-adv-x="676" 
d="M413 243l-48 -243h-162l49 250l-180 450h162l125 -312l251 312h167zM77.9639 283.521h522.881l-21.6279 -108.809h-524.153z" />
    <glyph glyph-name="uni04B1" unicode="&#x4b1;" horiz-adv-x="616" 
d="M330 -10l-38 -185h-156l39 190l-120 543h154l78 -369l226 369h156zM27.1934 51h474.742l-19.6367 -90h-475.897z" />
    <glyph glyph-name="uni04B2" unicode="&#x4b2;" horiz-adv-x="757" 
d="M299 700l101 -212l189 212h193l-300 -335l176 -365h-188l-114 232l-209 -232h-192l325 358l-164 342h183zM713 132l-55 -277h-149l29 145h-68l26 132h217z" />
    <glyph glyph-name="uni04B3" unicode="&#x4b3;" horiz-adv-x="641" 
d="M383 269l150 -269h-165l-88 165l-155 -165h-178l269 276l-143 262h162l85 -158l150 158h172zM600 125l-47 -233h-141l21 108h-66l25 125h208z" />
    <glyph glyph-name="uni04B4" unicode="&#x4b4;" horiz-adv-x="994" 
d="M845 131h101l-56 -280h-150l28 148h-582v1h-1l112 568h-222l27 132h564l-26 -132h-180l-88 -437h313l113 568h161z" />
    <glyph glyph-name="uni04B5" unicode="&#x4b5;" horiz-adv-x="799" 
d="M674 128h72l-47 -235h-145l21 107h-438l82 410h-182l26 128h457l-25 -128h-121l-56 -282h200l82 410h156z" />
    <glyph glyph-name="uni04B6" unicode="&#x4b6;" horiz-adv-x="780" 
d="M748 700l-140 -700h-160l50 248q-91 -29 -165 -29q-123 0 -188.5 52.5t-65.5 148.5q0 33 7 67l42 213h160l-42 -207q-5 -27 -5 -43q0 -96 117 -96q86 0 168 37l62 309h160zM733 132l-55 -277h-150l29 145h-109l28 132h257z" />
    <glyph glyph-name="uni04B7" unicode="&#x4b7;" horiz-adv-x="659" 
d="M612 538l-108 -538h-155l39 195q-69 -29 -146 -29q-95 0 -145 38t-50 114q0 27 6 57l33 163h156l-34 -165q-3 -16 -3 -30q0 -31 18.5 -44t56.5 -13q61 0 132 32l44 220h156zM610 128l-48 -235h-145l22 107h-90l26 128h235z" />
    <glyph glyph-name="uni04B8" unicode="&#x4b8;" horiz-adv-x="749" 
d="M748 700l-140 -700h-160l50 248q-62 -20 -119 -26l-24 -121h-87l24 120q-104 8 -158.5 60t-54.5 140q0 34 7 66l42 213h160l-42 -207q-5 -27 -5 -43q0 -78 78 -93l24 119h87l-24 -119q62 7 120 34l62 309h160z" />
    <glyph glyph-name="uni04B9" unicode="&#x4b9;" horiz-adv-x="633" 
d="M612 538l-108 -538h-155l39 195q-33 -14 -69 -21l-19 -93h-78l17 85q-94 1 -143 38.5t-49 113.5q0 26 6 57l33 163h156l-34 -165q-3 -16 -3 -30q0 -28 14.5 -41t44.5 -15l19 91h77l-17 -84q36 9 69 24l44 220h156z" />
    <glyph glyph-name="uni04BA" unicode="&#x4ba;" horiz-adv-x="749" 
d="M637.5 428.5q65.5 -52.5 65.5 -149.5q0 -34 -7 -66l-43 -213h-160l41 207q5 27 5 44q0 95 -115 95q-85 0 -168 -36l-62 -310h-160l140 700h160l-50 -248q91 29 164 29q124 0 189.5 -52.5z" />
    <glyph glyph-name="uni04BB" unicode="&#x4bb;" horiz-adv-x="682" 
d="M584 498q53 -48 53 -136q0 -32 -7 -64l-60 -298h-156l58 288q4 17 4 37q0 42 -23 64t-69 22q-60 0 -99.5 -34.5t-53.5 -103.5l-54 -273h-156l148 742h156l-50 -253q69 57 166 57q90 0 143 -48z" />
    <glyph glyph-name="uni04BC" unicode="&#x4bc;" horiz-adv-x="1019" 
d="M858.5 674.5q71.5 -37.5 110 -104.5t38.5 -152q0 -67 -23 -135l-559 1q8 -74 58 -116.5t130 -42.5q107 0 209 78l82 -107q-133 -108 -302 -108q-98 0 -174 37t-119 104t-47 156h-27q-82 1 -127.5 41t-45.5 107q0 73 53 155l136 -35q-46 -56 -46 -99q0 -24 16 -37.5
t47 -13.5h7q24 88 85 158t147.5 110.5t184.5 40.5q95 0 166.5 -37.5zM528.5 528.5q-64.5 -48.5 -90.5 -125.5h412q2 77 -46.5 125.5t-129.5 48.5t-145.5 -48.5z" />
    <glyph glyph-name="uni04BD" unicode="&#x4bd;" horiz-adv-x="817" 
d="M781 227h-423q8 -110 143 -110q44 0 82 12.5t66 37.5l67 -103q-47 -36 -106 -54t-125 -18q-84 0 -147.5 29t-99 82t-36.5 124h-22q-73 0 -110.5 26.5t-37.5 75.5q0 51 40 121l118 -22q-29 -41 -29 -69q0 -40 52 -41q17 67 61.5 119t109.5 80.5t144 28.5q80 0 139.5 -29
t91.5 -83t32 -125q0 -40 -10 -82zM425 399.5q-39 -29.5 -55 -81.5h274q1 52 -32.5 81.5t-90.5 29.5t-96 -29.5z" />
    <glyph glyph-name="uni04BE" unicode="&#x4be;" horiz-adv-x="1019" 
d="M858.5 674.5q71.5 -37.5 110 -104.5t38.5 -152q0 -67 -23 -135l-559 1q8 -74 58 -116.5t130 -42.5q107 0 209 78l82 -107q-133 -108 -302 -108q-98 0 -174 37t-119 104t-47 156h-27q-82 1 -127.5 41t-45.5 107q0 73 53 155l136 -35q-46 -56 -46 -99q0 -24 16 -37.5
t47 -13.5h7q24 88 85 158t147.5 110.5t184.5 40.5q95 0 166.5 -37.5zM528.5 528.5q-64.5 -48.5 -90.5 -125.5h412q2 77 -46.5 125.5t-129.5 48.5t-145.5 -48.5zM628 -145h-150l35 176h150z" />
    <glyph glyph-name="uni04BF" unicode="&#x4bf;" horiz-adv-x="817" 
d="M781 227h-423q8 -110 143 -110q44 0 82 12.5t66 37.5l67 -103q-47 -36 -106 -54t-125 -18q-84 0 -147.5 29t-99 82t-36.5 124h-22q-73 0 -110.5 26.5t-37.5 75.5q0 51 40 121l118 -22q-29 -41 -29 -69q0 -40 52 -41q17 67 61.5 119t109.5 80.5t144 28.5q80 0 139.5 -29
t91.5 -83t32 -125q0 -40 -10 -82zM425 399.5q-39 -29.5 -55 -81.5h274q1 52 -32.5 81.5t-90.5 29.5t-96 -29.5zM506 -107h-146l27 135h146z" />
    <glyph glyph-name="uni04C0" unicode="&#x4c0;" horiz-adv-x="337" 
d="M173 700h163l-140 -700h-163z" />
    <glyph glyph-name="uni04C1" unicode="&#x4c1;" horiz-adv-x="1079" 
d="M876 362l136 -362h-184l-101 282h-104l-56 -282h-159l56 282h-101l-213 -282h-192l286 371l-128 329h167l99 -283h109l57 283h159l-57 -283h104l213 283h175zM509.5 774.5q-43.5 31.5 -43.5 93.5q0 19 2 29h103q-1 -5 -1 -14q0 -29 19.5 -45.5t56.5 -16.5q39 0 64.5 19.5
t32.5 56.5h105q-13 -78 -65 -116t-145 -38q-85 0 -128.5 31.5z" />
    <glyph glyph-name="uni04C2" unicode="&#x4c2;" horiz-adv-x="914" 
d="M735 270l119 -270h-181l-77 207h-72l-42 -207h-155l41 207h-72l-155 -207h-190l229 283l-105 255h162l78 -210h77l42 210h156l-42 -210h71l163 210h171zM414 626.5q-40 29.5 -40 86.5q0 21 4 38h101q-2 -14 -2 -19q0 -27 17 -42t47 -15q71 0 88 76h103
q-15 -78 -64.5 -116t-135.5 -38q-78 0 -118 29.5z" />
    <glyph glyph-name="uni04C3" unicode="&#x4c3;" horiz-adv-x="744" 
d="M508 358q80 -114 120 -197.5t40 -149.5q0 -63 -30 -112t-84.5 -76.5t-124.5 -27.5q-69 0 -126 30l62 116q30 -16 55 -16q34 0 54 21.5t20 58.5q0 49 -34.5 124.5t-87.5 153.5h-119l-57 -283h-162l140 700h162l-57 -283h107l241 283h182z" />
    <glyph glyph-name="uni04C4" unicode="&#x4c4;" horiz-adv-x="640" 
d="M436 272q129 -146 129 -257q0 -65 -31 -114.5t-85 -76.5t-119 -27q-64 0 -122 29l61 111q32 -16 59 -16q35 0 57 23t22 62q0 41 -27 93t-75 108h-86l-42 -207h-156l108 538h156l-42 -211h78l191 211h170z" />
    <glyph glyph-name="uni04C6" unicode="&#x4c6;" horiz-adv-x="691" 
d="M646 128l-116 -235h-124l45 107h-70l82 411h-171l-23 -96q-29 -118 -59 -188t-72 -104t-103 -34q-37 0 -82 12l34 128q18 -2 24 -2q45 0 71.5 48t50.5 148l52 215h460l-82 -410h83z" />
    <glyph glyph-name="uni04C7" unicode="&#x4c7;" horiz-adv-x="814" 
d="M365 -62q24 -15 53 -15q34 0 60.5 20.5t33.5 55.5l57 281h-319l-56 -280h-160l140 700h160l-57 -287h318l57 287h161l-144 -717q-18 -91 -82 -138t-145 -47q-71 0 -130 33z" />
    <glyph glyph-name="uni04C8" unicode="&#x4c8;" horiz-adv-x="697" 
d="M261 -194.5q-32 7.5 -52 22.5l63 112q24 -19 60 -19q31 0 52.5 20t29.5 59l39 201h-236l-40 -201h-156l108 538h155l-41 -210h236l42 210h155l-108 -540q-18 -92 -81 -146t-157 -54q-37 0 -69 7.5z" />
    <glyph glyph-name="uni04C9" unicode="&#x4c9;" horiz-adv-x="848" 
d="M701 132h102l-135 -277h-128l58 145h-85l57 285h-317l-57 -285h-163l140 700h163l-55 -275h317l55 275h162z" />
    <glyph glyph-name="uni04CA" unicode="&#x4ca;" horiz-adv-x="720" 
d="M675 128l-116 -235h-124l45 107h-70l40 201h-233l-40 -201h-156l108 538h155l-42 -210h234l42 210h155l-82 -410h84z" />
    <glyph glyph-name="uni04CB" unicode="&#x4cb;" horiz-adv-x="743" 
d="M628 132h1l-27 -132h-137l-27 -145h-150l56 277h124l30 149q-87 -28 -161 -28q-125 0 -191 50t-66 143q0 29 6 60l38 194h161l-38 -187q-4 -17 -4 -36q0 -89 117 -89q86 0 167 35l55 277h160z" />
    <glyph glyph-name="uni04CC" unicode="&#x4cc;" horiz-adv-x="629" 
d="M608 538l-107 -538h-101l-22 -107h-146l45 228h92l22 107q-74 -34 -157 -34q-186 0 -186 144q0 27 6 58l29 142h155l-26 -132q-3 -15 -3 -27q0 -65 85 -65q61 0 119 26l40 198h155z" />
    <glyph glyph-name="uni04CD" unicode="&#x4cd;" horiz-adv-x="1003" 
d="M848 132h112l-135 -277h-128l58 145h-84l83 417l-268 -343h-73l-144 348l-84 -422h-151l140 700h132l175 -436l341 436h139z" />
    <glyph glyph-name="uni04CE" unicode="&#x4ce;" horiz-adv-x="858" 
d="M811 128l-116 -235h-124l45 107h-70l62 318l-210 -266h-66l-105 277l-65 -329h-141l108 538h161l110 -311l245 311h148l-81 -410h99z" />
    <glyph glyph-name="uni04CF" unicode="&#x4cf;" horiz-adv-x="305" 
d="M169 742h156l-148 -742h-156z" />
    <glyph glyph-name="uni04D0" unicode="&#x4d0;" horiz-adv-x="799" 
d="M544 150h-326l-91 -150h-173l453 700h160l172 -700h-162zM517 273l-59 270l-165 -270h224zM366.5 774.5q-43.5 31.5 -43.5 93.5q0 19 2 29h103q-1 -5 -1 -14q0 -29 19.5 -45.5t56.5 -16.5q39 0 64.5 19.5t32.5 56.5h105q-13 -78 -65 -116t-145 -38q-85 0 -128.5 31.5z
" />
    <glyph glyph-name="uni04D1" unicode="&#x4d1;" horiz-adv-x="697" 
d="M676 538l-107 -538h-148l10 53q-67 -61 -165 -61q-63 0 -116 29t-84.5 83.5t-31.5 128.5q0 89 39.5 160.5t107.5 112t150 40.5q124 0 175 -81l14 73h156zM396 143.5q36 22.5 56 62.5t20 92q0 55 -32.5 87t-90.5 32q-46 0 -82 -22.5t-56 -62.5t-20 -92q0 -55 32.5 -87
t90.5 -32q46 0 82 22.5zM308 626.5q-40 29.5 -40 86.5q0 21 4 38h101q-2 -14 -2 -19q0 -27 17 -42t47 -15q71 0 88 76h103q-15 -78 -64.5 -116t-135.5 -38q-78 0 -118 29.5z" />
    <glyph glyph-name="uni04D2" unicode="&#x4d2;" horiz-adv-x="799" 
d="M544 150h-326l-91 -150h-173l453 700h160l172 -700h-162zM517 273l-59 270l-165 -270h224zM358.5 779q-18.5 17 -18.5 45q0 33 22 54.5t52 21.5q28 0 47 -17t19 -45q0 -33 -22.5 -54.5t-52.5 -21.5q-28 0 -46.5 17zM561.5 779q-18.5 17 -18.5 45q0 34 21.5 55t52.5 21
q28 0 46.5 -17t18.5 -45q0 -33 -22 -54.5t-52 -21.5q-28 0 -46.5 17z" />
    <glyph glyph-name="uni04D3" unicode="&#x4d3;" horiz-adv-x="697" 
d="M676 538l-107 -538h-148l10 53q-67 -61 -165 -61q-63 0 -116 29t-84.5 83.5t-31.5 128.5q0 89 39.5 160.5t107.5 112t150 40.5q124 0 175 -81l14 73h156zM396 143.5q36 22.5 56 62.5t20 92q0 55 -32.5 87t-90.5 32q-46 0 -82 -22.5t-56 -62.5t-20 -92q0 -55 32.5 -87
t90.5 -32q46 0 82 22.5zM282.5 629q-18.5 17 -18.5 45q0 33 22 54.5t52 21.5q28 0 47 -17t19 -45q0 -33 -22.5 -54.5t-52.5 -21.5q-28 0 -46.5 17zM485.5 629q-18.5 17 -18.5 45q0 34 21.5 55t52.5 21q28 0 46.5 -17t18.5 -45q0 -33 -22 -54.5t-52 -21.5q-28 0 -46.5 17z
" />
    <glyph glyph-name="uni04D4" unicode="&#x4d4;" horiz-adv-x="1094" 
d="M729 570l-30 -152h325l-25 -126h-326l-32 -162h382l-26 -130h-542l30 150h-246l-111 -150h-178l530 700h643l-26 -130h-368zM510 273l59 298h-18l-221 -298h180z" />
    <glyph glyph-name="uni04D5" unicode="&#x4d5;" horiz-adv-x="992" 
d="M956 226h-417q4 -56 38.5 -82.5t101.5 -26.5q90 0 144 50l68 -103q-47 -36 -105.5 -54t-122.5 -18q-68 0 -125.5 23.5t-92.5 71.5q-39 -51 -94 -73t-126 -22q-99 0 -156 42.5t-57 111.5q0 80 63.5 125.5t182.5 45.5h138q2 16 2 22q0 40 -28.5 61t-83.5 21
q-42 0 -83.5 -11.5t-72.5 -31.5l-41 111q44 27 105 42t119 15q141 0 195 -74q80 74 198 74q78 0 137 -29t91 -83t32 -125q0 -40 -10 -83zM605 399q-38 -30 -55 -82h269q1 52 -32.5 82t-88.5 30t-93 -30zM329 122.5q32 25.5 43 78.5l5 25h-116q-46 0 -71.5 -18.5t-25.5 -50.5
q0 -28 21.5 -44t63.5 -16q48 0 80 25.5z" />
    <glyph glyph-name="uni04D6" unicode="&#x4d6;" horiz-adv-x="673" 
d="M308 570l-30 -152h325l-25 -126h-326l-32 -162h382l-27 -130h-542l140 700h529l-27 -130h-367zM318.5 774.5q-43.5 31.5 -43.5 93.5q0 19 2 29h103q-1 -5 -1 -14q0 -29 19.5 -45.5t56.5 -16.5q39 0 64.5 19.5t32.5 56.5h105q-13 -78 -65 -116t-145 -38q-85 0 -128.5 31.5
z" />
    <glyph glyph-name="uni04D7" unicode="&#x4d7;" horiz-adv-x="633" 
d="M597 227h-412q8 -110 139 -110q41 0 78.5 13t65.5 37l65 -103q-45 -36 -103 -54t-122 -18q-83 0 -145.5 29.5t-96 84.5t-33.5 127q0 89 40.5 160.5t112.5 112t164 40.5q78 0 135.5 -29t89 -83t31.5 -125q0 -37 -9 -82zM250 399.5q-38 -29.5 -54 -81.5h267
q0 52 -32.5 81.5t-87.5 29.5t-93 -29.5zM271 625.5q-40 29.5 -40 86.5q0 21 4 38h101q-2 -14 -2 -19q0 -27 17 -42t47 -15q71 0 88 76h103q-15 -78 -64.5 -116t-135.5 -38q-78 0 -118 29.5z" />
    <glyph glyph-name="uni04D8" unicode="&#x4d8;" horiz-adv-x="812" 
d="M628.5 673.5q77.5 -38.5 119 -108t41.5 -161.5q0 -120 -52.5 -214.5t-146.5 -148t-214 -53.5q-101 0 -177.5 38t-117.5 105.5t-41 154.5q0 43 14 105h572v8q0 81 -50 128t-142 47q-60 0 -114.5 -19.5t-97.5 -57.5l-77 112q58 50 136.5 76.5t164.5 26.5q105 0 182.5 -38.5
zM522 163q56 46 83 118h-405q1 -76 48.5 -120t136.5 -44q81 0 137 46z" />
    <glyph glyph-name="uni04D9" unicode="&#x4d9;" horiz-adv-x="633" 
d="M470.5 516.5q62.5 -29.5 96 -84.5t33.5 -127q0 -89 -40.5 -160.5t-112.5 -112t-164 -40.5q-78 0 -135.5 29t-89 83t-31.5 125q0 37 9 82h412q-8 110 -139 110q-41 0 -78.5 -13t-65.5 -37l-65 103q45 36 103 54t122 18q83 0 145.5 -29.5zM383 138.5q38 29.5 54 81.5h-267
q0 -52 32.5 -81.5t87.5 -29.5t93 29.5z" />
    <glyph glyph-name="uni04DA" unicode="&#x4da;" horiz-adv-x="812" 
d="M628.5 673.5q77.5 -38.5 119 -108t41.5 -161.5q0 -120 -52.5 -214.5t-146.5 -148t-214 -53.5q-101 0 -177.5 38t-117.5 105.5t-41 154.5q0 43 14 105h572v8q0 81 -50 128t-142 47q-60 0 -114.5 -19.5t-97.5 -57.5l-77 112q58 50 136.5 76.5t164.5 26.5q105 0 182.5 -38.5
zM522 163q56 46 83 118h-405q1 -76 48.5 -120t136.5 -44q81 0 137 46zM365.5 779q-18.5 17 -18.5 45q0 33 22 54.5t52 21.5q28 0 47 -17t19 -45q0 -33 -22.5 -54.5t-52.5 -21.5q-28 0 -46.5 17zM568.5 779q-18.5 17 -18.5 45q0 34 21.5 55t52.5 21q28 0 46.5 -17t18.5 -45
q0 -33 -22 -54.5t-52 -21.5q-28 0 -46.5 17z" />
    <glyph glyph-name="uni04DB" unicode="&#x4db;" horiz-adv-x="633" 
d="M470.5 516.5q62.5 -29.5 96 -84.5t33.5 -127q0 -89 -40.5 -160.5t-112.5 -112t-164 -40.5q-78 0 -135.5 29t-89 83t-31.5 125q0 37 9 82h412q-8 110 -139 110q-41 0 -78.5 -13t-65.5 -37l-65 103q45 36 103 54t122 18q83 0 145.5 -29.5zM383 138.5q38 29.5 54 81.5h-267
q0 -52 32.5 -81.5t87.5 -29.5t93 29.5zM242.5 629q-18.5 17 -18.5 45q0 33 22 54.5t52 21.5q28 0 47 -17t19 -45q0 -33 -22.5 -54.5t-52.5 -21.5q-28 0 -46.5 17zM445.5 629q-18.5 17 -18.5 45q0 34 21.5 55t52.5 21q28 0 46.5 -17t18.5 -45q0 -33 -22 -54.5t-52 -21.5
q-28 0 -46.5 17z" />
    <glyph glyph-name="uni04DC" unicode="&#x4dc;" horiz-adv-x="1079" 
d="M876 362l136 -362h-184l-101 282h-104l-56 -282h-159l56 282h-101l-213 -282h-192l286 371l-128 329h167l99 -283h109l57 283h159l-57 -283h104l213 283h175zM501.5 779q-18.5 17 -18.5 45q0 33 22 54.5t52 21.5q28 0 47 -17t19 -45q0 -33 -22.5 -54.5t-52.5 -21.5
q-28 0 -46.5 17zM704.5 779q-18.5 17 -18.5 45q0 34 21.5 55t52.5 21q28 0 46.5 -17t18.5 -45q0 -33 -22 -54.5t-52 -21.5q-28 0 -46.5 17z" />
    <glyph glyph-name="uni04DD" unicode="&#x4dd;" horiz-adv-x="914" 
d="M735 270l119 -270h-181l-77 207h-72l-42 -207h-155l41 207h-72l-155 -207h-190l229 283l-105 255h162l78 -210h77l42 210h156l-42 -210h71l163 210h171zM388.5 629q-18.5 17 -18.5 45q0 33 22 54.5t52 21.5q28 0 47 -17t19 -45q0 -33 -22.5 -54.5t-52.5 -21.5
q-28 0 -46.5 17zM591.5 629q-18.5 17 -18.5 45q0 34 21.5 55t52.5 21q28 0 46.5 -17t18.5 -45q0 -33 -22 -54.5t-52 -21.5q-28 0 -46.5 17z" />
    <glyph glyph-name="uni04DE" unicode="&#x4de;" horiz-adv-x="657" 
d="M576 305q27 -38 27 -88q0 -69 -48.5 -122t-129 -82t-173.5 -29q-72 0 -142.5 19t-128.5 58l74 116q41 -29 93.5 -43.5t105.5 -14.5q78 0 132.5 30t54.5 81q0 68 -104 68h-173l24 122h162q53 0 85.5 23.5t32.5 60.5q0 38 -34.5 58t-92.5 20q-44 0 -95.5 -12.5
t-101.5 -37.5l-24 126q122 56 246 56q76 0 137.5 -22t97.5 -63t36 -96q0 -56 -36.5 -101.5t-98.5 -68.5q47 -20 74 -58zM280.5 779q-18.5 17 -18.5 45q0 33 22 54.5t52 21.5q28 0 47 -17t19 -45q0 -33 -22.5 -54.5t-52.5 -21.5q-28 0 -46.5 17zM483.5 779q-18.5 17 -18.5 45
q0 34 21.5 55t52.5 21q28 0 46.5 -17t18.5 -45q0 -33 -22 -54.5t-52 -21.5q-28 0 -46.5 17z" />
    <glyph glyph-name="uni04DF" unicode="&#x4df;" horiz-adv-x="545" 
d="M467.5 232.5q22.5 -28.5 22.5 -66.5q0 -50 -37 -90t-103 -63t-148 -23q-119 0 -221 55l52 105q33 -19 79.5 -29.5t95.5 -10.5q61 0 96.5 18.5t35.5 50.5q0 47 -75 47h-110l15 97h92q44 0 69.5 14.5t25.5 40.5q0 50 -89 50q-37 0 -74.5 -9.5t-87.5 -31.5l-33 117
q105 44 210 44q67 0 118.5 -18t80.5 -51t29 -76q0 -42 -28.5 -76t-77.5 -51q40 -15 62.5 -43.5zM180.5 628q-18.5 17 -18.5 45q0 33 22 54.5t52 21.5q28 0 47 -17t19 -45q0 -33 -22.5 -54.5t-52.5 -21.5q-28 0 -46.5 17zM383.5 628q-18.5 17 -18.5 45q0 34 21.5 55t52.5 21
q28 0 46.5 -17t18.5 -45q0 -33 -22 -54.5t-52 -21.5q-28 0 -46.5 17z" />
    <glyph glyph-name="uni04E0" unicode="&#x4e0;" horiz-adv-x="616" 
d="M610 595l-196 -183q73 -17 113 -63t40 -114q0 -71 -41.5 -127t-115.5 -88t-168 -32q-77 0 -144 21t-112 60l78 119q35 -30 84.5 -47t104.5 -17q72 0 111 26.5t39 74.5q0 38 -28.5 56.5t-86.5 18.5h-74l21 107l174 163h-295l26 130h490z" />
    <glyph glyph-name="uni04E1" unicode="&#x4e1;" horiz-adv-x="557" 
d="M535 434l-206 -197q78 -14 119 -60.5t41 -120.5q0 -80 -45 -138.5t-119.5 -89.5t-160.5 -31q-70 0 -136 21t-120 62l73 119q40 -32 91 -49t101 -17q66 0 110 29t44 84q0 40 -27.5 62.5t-84.5 22.5h-77l19 103l182 174h-300l26 130h488z" />
    <glyph glyph-name="uni04E2" unicode="&#x4e2;" horiz-adv-x="821" 
d="M174 700h160l-93 -456l425 456h154l-140 -700h-160l94 455l-426 -455h-154zM345 873h369l-17 -88h-369z" />
    <glyph glyph-name="uni04E3" unicode="&#x4e3;" horiz-adv-x="711" 
d="M129 538h156l-67 -327l325 327h147l-107 -538h-157l68 328l-325 -328h-148zM252 723h369l-17 -88h-369z" />
    <glyph glyph-name="uni04E4" unicode="&#x4e4;" horiz-adv-x="821" 
d="M174 700h160l-93 -456l425 456h154l-140 -700h-160l94 455l-426 -455h-154zM368.5 779q-18.5 17 -18.5 45q0 33 22 54.5t52 21.5q28 0 47 -17t19 -45q0 -33 -22.5 -54.5t-52.5 -21.5q-28 0 -46.5 17zM571.5 779q-18.5 17 -18.5 45q0 34 21.5 55t52.5 21q28 0 46.5 -17
t18.5 -45q0 -33 -22 -54.5t-52 -21.5q-28 0 -46.5 17z" />
    <glyph glyph-name="uni04E5" unicode="&#x4e5;" horiz-adv-x="711" 
d="M129 538h156l-67 -327l325 327h147l-107 -538h-157l68 328l-325 -328h-148zM275.5 629q-18.5 17 -18.5 45q0 33 22 54.5t52 21.5q28 0 47 -17t19 -45q0 -33 -22.5 -54.5t-52.5 -21.5q-28 0 -46.5 17zM478.5 629q-18.5 17 -18.5 45q0 34 21.5 55t52.5 21q28 0 46.5 -17
t18.5 -45q0 -33 -22 -54.5t-52 -21.5q-28 0 -46.5 17z" />
    <glyph glyph-name="uni04E6" unicode="&#x4e6;" horiz-adv-x="848" 
d="M212 26q-77 38 -118 107t-41 159q0 119 54.5 214.5t153 150.5t225.5 55q105 0 182 -38t118 -107t41 -159q0 -119 -54.5 -214.5t-153 -150.5t-225.5 -55q-105 0 -182 38zM543 163q58 37 89 99t31 137q0 80 -50 127.5t-141 47.5q-77 0 -135 -37t-89 -99t-31 -137
q0 -80 50 -127.5t141 -47.5q77 0 135 37zM382.5 779q-18.5 17 -18.5 45q0 33 22 54.5t52 21.5q28 0 47 -17t19 -45q0 -33 -22.5 -54.5t-52.5 -21.5q-28 0 -46.5 17zM585.5 779q-18.5 17 -18.5 45q0 34 21.5 55t52.5 21q28 0 46.5 -17t18.5 -45q0 -33 -22 -54.5t-52 -21.5
q-28 0 -46.5 17z" />
    <glyph glyph-name="uni04E7" unicode="&#x4e7;" horiz-adv-x="659" 
d="M159.5 22q-61.5 30 -95 84.5t-33.5 126.5q0 89 42 160t116 112t167 41q82 0 143 -30t94.5 -84.5t33.5 -126.5q0 -89 -41.5 -160t-116 -112t-167.5 -41q-81 0 -142.5 30zM393 143.5q36 22.5 56 62.5t20 92q0 55 -32 87t-90 32q-46 0 -82 -22.5t-56 -62.5t-20 -92
q0 -55 32.5 -87t90.5 -32q45 0 81 22.5zM255.5 629q-18.5 17 -18.5 45q0 33 22 54.5t52 21.5q28 0 47 -17t19 -45q0 -33 -22.5 -54.5t-52.5 -21.5q-28 0 -46.5 17zM458.5 629q-18.5 17 -18.5 45q0 34 21.5 55t52.5 21q28 0 46.5 -17t18.5 -45q0 -33 -22 -54.5t-52 -21.5
q-28 0 -46.5 17z" />
    <glyph glyph-name="uni04E8" unicode="&#x4e8;" horiz-adv-x="844" 
d="M210 26q-77 38 -118 107t-41 159q0 119 54.5 214.5t153 150.5t225.5 55q105 0 182 -38t118 -107t41 -159q0 -119 -54.5 -214.5t-153 -150.5t-225.5 -55q-105 0 -182 38zM541 163q58 37 89 99t31 137q0 80 -50 127.5t-141 47.5q-77 0 -135 -37t-89 -99t-31 -137
q0 -80 50 -127.5t141 -47.5q77 0 135 37zM112.298 404h667.699l-16.8125 -108h-666.898z" />
    <glyph glyph-name="uni04E9" unicode="&#x4e9;" horiz-adv-x="667" 
d="M506 516.5q62 -29.5 96 -84.5t34 -127q0 -89 -42 -160.5t-117 -112t-170 -40.5q-84 0 -146 30t-96 84.5t-34 126.5q0 89 42 160.5t117 112t170 40.5q84 0 146 -29.5zM256 398.5q-41 -28.5 -60 -79.5h286q-6 53 -39.5 80.5t-91.5 27.5q-54 0 -95 -28.5zM411 139.5
q41 28.5 59 79.5h-286q6 -52 40.5 -80t91.5 -28q54 0 95 28.5z" />
    <glyph glyph-name="uni04EA" unicode="&#x4ea;" horiz-adv-x="844" 
d="M210 26q-77 38 -118 107t-41 159q0 119 54.5 214.5t153 150.5t225.5 55q105 0 182 -38t118 -107t41 -159q0 -119 -54.5 -214.5t-153 -150.5t-225.5 -55q-105 0 -182 38zM541 163q58 37 89 99t31 137q0 80 -50 127.5t-141 47.5q-77 0 -135 -37t-89 -99t-31 -137
q0 -80 50 -127.5t141 -47.5q77 0 135 37zM112.298 404h667.699l-16.8125 -108h-666.898zM380.5 779q-18.5 17 -18.5 45q0 33 22 54.5t52 21.5q28 0 47 -17t19 -45q0 -33 -22.5 -54.5t-52.5 -21.5q-28 0 -46.5 17zM583.5 779q-18.5 17 -18.5 45q0 34 21.5 55t52.5 21
q28 0 46.5 -17t18.5 -45q0 -33 -22 -54.5t-52 -21.5q-28 0 -46.5 17z" />
    <glyph glyph-name="uni04EB" unicode="&#x4eb;" horiz-adv-x="667" 
d="M506 516.5q62 -29.5 96 -84.5t34 -127q0 -89 -42 -160.5t-117 -112t-170 -40.5q-84 0 -146 30t-96 84.5t-34 126.5q0 89 42 160.5t117 112t170 40.5q84 0 146 -29.5zM256 398.5q-41 -28.5 -60 -79.5h286q-6 53 -39.5 80.5t-91.5 27.5q-54 0 -95 -28.5zM411 139.5
q41 28.5 59 79.5h-286q6 -52 40.5 -80t91.5 -28q54 0 95 28.5zM259.5 629q-18.5 17 -18.5 45q0 33 22 54.5t52 21.5q28 0 47 -17t19 -45q0 -33 -22.5 -54.5t-52.5 -21.5q-28 0 -46.5 17zM462.5 629q-18.5 17 -18.5 45q0 34 21.5 55t52.5 21q28 0 46.5 -17t18.5 -45
q0 -33 -22 -54.5t-52 -21.5q-28 0 -46.5 17z" />
    <glyph glyph-name="uni04EC" unicode="&#x4ec;" horiz-adv-x="716" 
d="M557 674.5q68 -37.5 104.5 -105.5t36.5 -155q0 -118 -61 -215.5t-163 -154t-218 -56.5q-88 0 -157.5 31.5t-110.5 93.5l122 96q57 -83 164 -83q80 0 145 46t94 120h-289l24 124h283q-6 73 -50.5 115.5t-117.5 42.5q-107 0 -196 -83l-84 96q60 60 142 92.5t173 32.5
t159 -37.5zM288.5 779q-18.5 17 -18.5 45q0 33 22 54.5t52 21.5q28 0 47 -17t19 -45q0 -33 -22.5 -54.5t-52.5 -21.5q-28 0 -46.5 17zM491.5 779q-18.5 17 -18.5 45q0 34 21.5 55t52.5 21q28 0 46.5 -17t18.5 -45q0 -33 -22 -54.5t-52 -21.5q-28 0 -46.5 17z" />
    <glyph glyph-name="uni04ED" unicode="&#x4ed;" horiz-adv-x="594" 
d="M437.5 516.5q60.5 -30.5 94 -86t33.5 -127.5q0 -87 -46.5 -158.5t-127.5 -113t-179 -41.5q-76 0 -134 26.5t-93 76.5l98 77q24 -30 59 -45.5t77 -15.5q60 0 108 29.5t72 79.5h-228l22 107h222q-7 50 -43 77.5t-95 27.5q-84 0 -154 -64l-75 83q47 47 113 72.5t138 25.5
q78 0 138.5 -30.5zM207.5 628q-18.5 17 -18.5 45q0 33 22 54.5t52 21.5q28 0 47 -17t19 -45q0 -33 -22.5 -54.5t-52.5 -21.5q-28 0 -46.5 17zM410.5 628q-18.5 17 -18.5 45q0 34 21.5 55t52.5 21q28 0 46.5 -17t18.5 -45q0 -33 -22 -54.5t-52 -21.5q-28 0 -46.5 17z" />
    <glyph glyph-name="uni04EE" unicode="&#x4ee;" horiz-adv-x="725" 
d="M805 700l-408 -559q-57 -79 -123 -118t-136 -39q-57 0 -115 26l54 119q30 -10 59 -10q34 0 63 15.5t57 48.5l12 13l-172 504h169l111 -373l267 373h162zM293 873h369l-17 -88h-369z" />
    <glyph glyph-name="uni04EF" unicode="&#x4ef;" horiz-adv-x="615" 
d="M668 538l-358 -574q-58 -94 -112.5 -130t-133.5 -36q-42 0 -82.5 13t-63.5 34l72 112q36 -33 86 -33q30 0 52 15t45 51l5 9l-124 539h156l80 -366l224 366h154zM201 723h369l-17 -88h-369z" />
    <glyph glyph-name="uni04F0" unicode="&#x4f0;" horiz-adv-x="725" 
d="M805 700l-408 -559q-57 -79 -123 -118t-136 -39q-57 0 -115 26l54 119q30 -10 59 -10q34 0 63 15.5t57 48.5l12 13l-172 504h169l111 -373l267 373h162zM316.5 779q-18.5 17 -18.5 45q0 33 22 54.5t52 21.5q28 0 47 -17t19 -45q0 -33 -22.5 -54.5t-52.5 -21.5
q-28 0 -46.5 17zM519.5 779q-18.5 17 -18.5 45q0 34 21.5 55t52.5 21q28 0 46.5 -17t18.5 -45q0 -33 -22 -54.5t-52 -21.5q-28 0 -46.5 17z" />
    <glyph glyph-name="uni04F1" unicode="&#x4f1;" horiz-adv-x="615" 
d="M668 538l-358 -574q-58 -94 -112.5 -130t-133.5 -36q-42 0 -82.5 13t-63.5 34l72 112q36 -33 86 -33q30 0 52 15t45 51l5 9l-124 539h156l80 -366l224 366h154zM224.5 629q-18.5 17 -18.5 45q0 33 22 54.5t52 21.5q28 0 47 -17t19 -45q0 -33 -22.5 -54.5t-52.5 -21.5
q-28 0 -46.5 17zM427.5 629q-18.5 17 -18.5 45q0 34 21.5 55t52.5 21q28 0 46.5 -17t18.5 -45q0 -33 -22 -54.5t-52 -21.5q-28 0 -46.5 17z" />
    <glyph glyph-name="uni04F2" unicode="&#x4f2;" horiz-adv-x="725" 
d="M805 700l-408 -559q-57 -79 -123 -118t-136 -39q-57 0 -115 26l54 119q30 -10 59 -10q34 0 63 15.5t57 48.5l12 13l-172 504h169l111 -373l267 373h162zM383 901h150l-120 -144h-118zM585 901h150l-121 -144h-116z" />
    <glyph glyph-name="uni04F3" unicode="&#x4f3;" horiz-adv-x="615" 
d="M668 538l-358 -574q-58 -94 -112.5 -130t-133.5 -36q-42 0 -82.5 13t-63.5 34l72 112q36 -33 86 -33q30 0 52 15t45 51l5 9l-124 539h156l80 -366l224 366h154zM291 751h150l-120 -144h-118zM493 751h150l-121 -144h-116z" />
    <glyph glyph-name="uni04F4" unicode="&#x4f4;" horiz-adv-x="749" 
d="M748 700l-140 -700h-160l50 248q-91 -29 -165 -29q-123 0 -188.5 52.5t-65.5 148.5q0 33 7 67l42 213h160l-42 -207q-5 -27 -5 -43q0 -96 117 -96q86 0 168 37l62 309h160zM313.5 779q-18.5 17 -18.5 45q0 33 22 54.5t52 21.5q28 0 47 -17t19 -45q0 -33 -22.5 -54.5
t-52.5 -21.5q-28 0 -46.5 17zM516.5 779q-18.5 17 -18.5 45q0 34 21.5 55t52.5 21q28 0 46.5 -17t18.5 -45q0 -33 -22 -54.5t-52 -21.5q-28 0 -46.5 17z" />
    <glyph glyph-name="uni04F5" unicode="&#x4f5;" horiz-adv-x="633" 
d="M612 538l-108 -538h-155l39 195q-69 -29 -146 -29q-95 0 -145 38t-50 114q0 27 6 57l33 163h156l-34 -165q-3 -16 -3 -30q0 -31 18.5 -44t56.5 -13q61 0 132 32l44 220h156zM220.5 629q-18.5 17 -18.5 45q0 33 22 54.5t52 21.5q28 0 47 -17t19 -45q0 -33 -22.5 -54.5
t-52.5 -21.5q-28 0 -46.5 17zM423.5 629q-18.5 17 -18.5 45q0 34 21.5 55t52.5 21q28 0 46.5 -17t18.5 -45q0 -33 -22 -54.5t-52 -21.5q-28 0 -46.5 17z" />
    <glyph glyph-name="uni04F6" unicode="&#x4f6;" horiz-adv-x="595" 
d="M640 568h-335l-111 -568h-160l140 700h493zM319 132l-55 -277h-150l29 145h-109l28 132h257z" />
    <glyph glyph-name="uni04F7" unicode="&#x4f7;" horiz-adv-x="514" 
d="M534 410h-277l-80 -410h-156l108 538h430zM282 128l-48 -235h-145l22 107h-90l26 128h235z" />
    <glyph glyph-name="uni04F8" unicode="&#x4f8;" horiz-adv-x="1053" 
d="M693 279q0 -83 -42.5 -146.5t-120 -98t-180.5 -34.5h-316l140 700h160l-46 -230h172q233 0 233 -191zM481.5 158.5q44.5 38.5 44.5 102.5q0 46 -26.5 67.5t-84.5 21.5h-151l-46 -230h146q73 0 117.5 38.5zM894 700h163l-140 -700h-163zM456.5 779q-18.5 17 -18.5 45
q0 33 22 54.5t52 21.5q28 0 47 -17t19 -45q0 -33 -22.5 -54.5t-52.5 -21.5q-28 0 -46.5 17zM659.5 779q-18.5 17 -18.5 45q0 34 21.5 55t52.5 21q28 0 46.5 -17t18.5 -45q0 -33 -22 -54.5t-52 -21.5q-28 0 -46.5 17z" />
    <glyph glyph-name="uni04F9" unicode="&#x4f9;" horiz-adv-x="859" 
d="M683 538h155l-107 -538h-156zM509.5 327.5q48.5 -38.5 48.5 -114.5q0 -64 -33.5 -112t-94.5 -74.5t-142 -26.5h-267l108 537h155l-34 -171h117q94 0 142.5 -38.5zM370 135.5q31 25.5 31 68.5q0 61 -80 61h-91l-31 -155h89q51 0 82 25.5zM359.5 629q-18.5 17 -18.5 45
q0 33 22 54.5t52 21.5q28 0 47 -17t19 -45q0 -33 -22.5 -54.5t-52.5 -21.5q-28 0 -46.5 17zM562.5 629q-18.5 17 -18.5 45q0 34 21.5 55t52.5 21q28 0 46.5 -17t18.5 -45q0 -33 -22 -54.5t-52 -21.5q-28 0 -46.5 17z" />
    <glyph glyph-name="uni04FA" unicode="&#x4fa;" horiz-adv-x="643" 
d="M347 568l-39 -196h272l-20 -102h-273l-32 -160h86l-25 -121q-18 -91 -84 -141.5t-152 -50.5q-68 0 -126 32l59 105q27 -17 59 -17q33 0 57 20.5t32 59.5l1 3h-91l54 270h-103l20 102h103l66 328h496l-27 -132h-333z" />
    </font>
</defs>
</svg>
